<?xml version="1.0" standalone="no"?>
<!DOCTYPE svg PUBLIC "-//W3C//DTD SVG 1.1//EN" "http://www.w3.org/Graphics/SVG/1.1/DTD/svg11.dtd" >
<!--
2013-9-30: Created.
-->
<svg>
<metadata>
Created by iconfont
</metadata>
<defs>

<font id="awsui-iconfont" horiz-adv-x="1024" >
  <font-face
    font-family="awsui-iconfont"
    font-weight="500"
    font-stretch="normal"
    units-per-em="1024"
    ascent="896"
    descent="-128"
  />
    <missing-glyph />
    
    <glyph glyph-name="liuchengzu" unicode="&#59638;" d="M930.929-36H90.07c-19.34 0-36.857 7.85-49.54 20.466C27.848-2.848 20 14.674 20 34.089V734.981C20 773.67 51.392 805 90.071 805H440.43c16.607 0 31.251-6.588 43.234-16.26 55.706-36.377 111.343-123.848 166.98-123.848h280.286c38.75 0 70.071-31.4 70.071-70.09V34.09C1001-4.6 969.678-36 930.929-36z m-393.75 547h-55.4a41.54 41.54 0 0 1-29.15-12.689 41.471 41.471 0 0 1-11.622-29.572C441.423 446.392 459.414 428 481.78 428h55.438c22.96 0 41.248 19.38 40.773 42.261-0.422 22.338-18.456 40.339-40.812 40.739z m-0.02-139h-55.398a41.554 41.554 0 0 1-29.16-12.707 41.426 41.426 0 0 1-11.593-29.583c0.416-22.331 18.407-39.88 40.773-40.71h55.438c22.959 0.83 41.247 19.367 40.772 42.231-0.401 22.34-18.437 40.358-40.812 40.769h-0.02z m0.021-138h-55.4c-22.958-0.83-41.227-19.38-40.772-42.261 0.422-22.323 18.432-40.318 40.773-40.739h55.439a41.58 41.58 0 0 1 29.16 12.72 41.51 41.51 0 0 1 11.612 29.6c-0.413 22.326-18.467 40.303-40.812 40.64V234z m-151.84-27.586a55.485 55.485 0 0 0-39.308 16.193 55.153 55.153 0 0 0-16.212 39.202 54.877 54.877 0 0 0 16.282 39.16 55.485 55.485 0 0 0 39.377 16.195h27.72V345h-27.7c-46.077 0-83.444-37.212-83.499-83.151 0-45.892 37.41-83.152 83.3-83.152V151l41.7 41.576-41.74 41.575v-27.717h0.1v-0.02h-0.02zM634.871 483h-27.696v-27.85h27.696c14.73 0 28.847-5.705 39.255-16.104a55.24 55.24 0 0 0 16.254-39.201 55.24 55.24 0 0 0-16.353-39.16 55.893 55.893 0 0 0-39.393-16.222v27.73L593 330.598 634.634 289v27.692c45.816 0 83.366 37.239 83.366 83.134a82.978 82.978 0 0 1-24.301 58.805 83.126 83.126 0 0 1-58.828 24.35V483z"  horiz-adv-x="1024" />

    
    <glyph glyph-name="yewuyu" unicode="&#59641;" d="M930.929-36H90.07c-19.34 0-36.857 7.85-49.54 20.466C27.848-2.848 20 14.674 20 34.089V734.981C20 773.67 51.392 805 90.071 805H440.43c16.607 0 31.251-6.588 43.234-16.26 55.706-36.377 111.343-123.848 166.98-123.848h280.286c38.75 0 70.071-31.4 70.071-70.09V34.09C1001-4.6 969.678-36 930.929-36zM334 146h183V512H334v-366z m114.375 320.25h45.75v-45.75h-45.75v45.75z m0-91.5h45.75V329h-45.75v45.75z m0-91.5h45.75v-45.75h-45.75v45.75z m-91.5 183h45.75v-45.75h-45.75v45.75z m0-91.5h45.75V329h-45.75v45.75z m0-91.5h45.75v-45.75h-45.75v45.75z m183 114.375v-22.875H700v22.875H539.875z m0-251.625h45.75v91.5h68.625V146H700V351.875H539.875V146z"  horiz-adv-x="1024" />

    
    <glyph glyph-name="yewucengji" unicode="&#59642;" d="M930.929-36H90.07c-19.34 0-36.857 7.85-49.54 20.466C27.848-2.848 20 14.674 20 34.089V734.981C20 773.67 51.392 805 90.071 805H440.43c16.607 0 31.251-6.588 43.234-16.26 55.706-36.377 111.343-123.848 166.98-123.848h280.286c38.75 0 70.071-31.4 70.071-70.09V34.09C1001-4.6 969.678-36 930.929-36zM667.35 256.518v57.687c0 22.709-18.4 41.187-41.015 41.187H518.749v35.434c23.727 6.049 40.359 27.473 40.41 52.055 0 29.681-24.01 53.79-53.567 53.79-29.496 0-53.536-24.109-53.536-53.76 0-25.083 17.22-46.149 40.38-52.054v-35.465h-97.31c-22.615 0-41.016-18.478-41.016-41.187v-57.687c-23.71-6.07-40.322-27.485-40.38-52.056 0-29.65 24.01-53.79 53.536-53.79 29.557 0 53.566 24.11 53.566 53.79 0 25.084-17.218 46.12-40.41 52.056v57.687c0 8.158 6.61 14.764 14.703 14.764h97.31v-72.451c-23.709-6.07-40.32-27.485-40.379-52.056 0-29.68 24.01-53.79 53.536-53.79 29.527 0 53.566 24.11 53.566 53.76 0 25.084-17.219 46.15-40.41 52.055V329h107.588c8.094 0 14.702-6.606 14.702-14.764v-57.687c-23.721-6.058-40.348-27.476-40.41-52.055 0-29.65 24.01-53.79 53.567-53.79 29.526 0 53.535 24.11 53.535 53.79 0 25.084-17.218 46.119-40.379 52.055v-0.03z"  horiz-adv-x="1024" />

    
    <glyph glyph-name="chaifenyemian" unicode="&#59637;" d="M912 832v-256H112V832h66.688v-192h666.688V832zM112-64v256h800v-256h-66.624v192H178.688v-192zM64 448h896v-128H64z"  horiz-adv-x="1024" />

    
    <glyph glyph-name="shoujixuanzhuan" unicode="&#59636;" d="M868.962 804.785H561.916c-50.253 0-90.977-40.732-90.977-90.978v-659.612c0-50.247 40.723-90.977 90.977-90.977h307.046c50.256 0 90.987 40.731 90.987 90.977V713.807c0 50.245-40.731 90.978-90.987 90.978z m-14.108-80.047c9.774 0 17.706-7.918 17.706-17.699 0-9.78-7.932-17.713-17.706-17.713s-17.706 7.934-17.706 17.713c0 9.781 7.933 17.7 17.706 17.7z m-213.336 0.43h147.845v-34.114H641.518v34.113z m82.35-695.247c-17.033 0-30.824 13.812-30.824 30.832 0 17.034 13.79 30.849 30.825 30.849s30.855-13.815 30.855-30.85c0-17.019-13.821-30.831-30.855-30.831z m179.223 81.138H527.797V656.94h375.294V111.06zM186.644 133.812h56.806v170.52h-56.806v-170.52z m22.692 147.827h11.42v-125.135h-11.42V281.639zM281.382 46.584h153.014v22.694H304.075V368.863h130.321v22.694H281.382zM216.126 387.539c-16.023 0-29.054-13.031-29.054-29.06 0-16.015 13.03-29.046 29.054-29.046 16.022 0 29.053 13.03 29.053 29.046 0 16.029-13.031 29.06-29.053 29.06z m0-35.415c-3.51 0-6.36 2.852-6.36 6.354 0 3.516 2.852 6.368 6.36 6.368s6.36-2.852 6.36-6.368c0-3.501-2.852-6.354-6.36-6.354zM209.367 474.926c-56.43 0-102.332-45.903-102.332-102.325V65.54c0-56.422 45.903-102.324 102.332-102.324h225.029V-14.09h-225.03c-43.915 0-79.639 35.723-79.639 79.63V372.602c0 43.91 35.724 79.632 79.64 79.632h225.029v22.693h-225.03zM138.156 611.097c0.244 3.133 0.488 6.265 0.902 9.426 10.563 81.449 72.643 143.78 149.186 158.6l-6.617 21.806c-84.803-17.419-153.325-86.916-165.077-177.48-0.273-2.158-0.429-4.315-0.643-6.472L82.755 665.23l-18.704-12.853 58.58-85.23 76.824 67.768-15.01 17.02-46.289-40.837z"  horiz-adv-x="1024" />

    
    <glyph glyph-name="VAR" unicode="&#59635;" d="M929.353143 782.628571c23.552 0 42.715429-19.163429 42.715428-42.715428v-640.512a42.715429 42.715429 0 0 0-42.715428-42.715429h-208.457143v-34.742857a36.571429 36.571429 0 0 0-36.571429-36.571428H359.716571a36.571429 36.571429 0 0 0-36.571428 36.571428v34.742857H94.646857a42.715429 42.715429 0 0 0-42.130286 35.84l-0.585142 6.875429V739.913143c0 23.552 19.163429 42.715429 42.715428 42.715428zM886.491429 697.051429H137.362286v-555.008H886.491429V697.124571zM340.845714 300.763429l83.602286 237.714285h-54.125714l-59.245715-182.198857h-2.048l-57.197714 182.198857h-57.563428l81.92-237.714285h64.731428z m95.817143 0l20.48 58.953142h96.621714l20.260572-58.953142h55.149714l-88.064 237.714285h-69.851428L382.537143 300.763429h54.125714z m102.034286 102.107428h-66.413714l31.451428 90.038857h4.169143l30.793143-90.038857z m148.187428-102.107428V387.437714h25.673143l55.808-86.674285h61.366857l-66.852571 92.16c30.500571 9.216 44.617143 30.500571 44.617143 70.217142 0 54.857143-27.794286 75.337143-91.867429 75.337143H634.88v-237.714285h52.077714z m20.845715 125.366857h-20.845715V497.371429h20.845715c34.962286 0 47.981714-5.851429 47.981714-34.230858 0-30.134857-13.019429-37.010286-47.981714-37.010285z"  horiz-adv-x="1024" />

    
    <glyph glyph-name="bianliang" unicode="&#59634;" d="M192 768h640c46.933333 0 85.333333-38.4 85.333333-85.333333v-597.333334c0-46.933333-38.4-85.333333-85.333333-85.333333H192c-46.933333 0-85.333333 38.4-85.333333 85.333333V682.666667c0 46.933333 38.4 85.333333 85.333333 85.333333z m0-64c-12.8 0-21.333333-8.533333-21.333333-21.333333v-597.333334c0-12.8 8.533333-21.333333 21.333333-21.333333h640c12.8 0 21.333333 8.533333 21.333333 21.333333V682.666667c0 12.8-8.533333 21.333333-21.333333 21.333333H192z m298.666667-360.533333c-14.933333 2.133333-27.733333 4.266667-40.533334 10.666666L424.533333 320c4.266667-17.066667 8.533333-36.266667 10.666667-51.2 2.133333-14.933333 8.533333-29.866667 14.933333-42.666667 8.533333-10.666667 32 2.133333 32 2.133334 2.133333 2.133333 6.4 2.133333 10.666667 2.133333 12.8 0 23.466667-8.533333 23.466667-21.333333 0-8.533333-6.4-17.066667-14.933334-19.2-19.2-10.666667-40.533333-17.066667-64-17.066667-27.733333 0-51.2 14.933333-59.733333 38.4-2.133333 8.533333-6.4 25.6-10.666667 46.933333 0 0-17.066667-25.6-29.866666-49.066666-14.933333-23.466667-29.866667-34.133333-46.933334-34.133334-8.533333 0-36.266667 2.133333-36.266666 36.266667-2.133333 10.666667 2.133333 23.466667 10.666666 32 8.533333 8.533333 19.2 14.933333 32 14.933333 14.933333-2.133333 27.733333-4.266667 40.533334-8.533333l23.466666 32c-4.266667 23.466667-12.8 51.2-19.2 74.666667-2.133333 6.4-4.266667 10.666667-4.266666 14.933333-6.4 14.933333-34.133333 0-34.133334 0-2.133333-2.133333-6.4-2.133333-10.666666-2.133333-12.8 0-23.466667 8.533333-23.466667 21.333333 0 6.4 4.266667 14.933333 10.666667 17.066667 21.333333 12.8 46.933333 19.2 70.4 19.2 27.733333-2.133333 51.2-19.2 57.6-46.933334 2.133333-6.4 4.266667-19.2 8.533333-36.266666 0 0 17.066667 25.6 29.866667 49.066666 14.933333 23.466667 29.866667 34.133333 46.933333 34.133334 8.533333 0 36.266667-2.133333 36.266667-36.266667 2.133333-10.666667-2.133333-23.466667-10.666667-32-4.266667-8.533333-14.933333-14.933333-27.733333-14.933333zM170.666667 618.666667h682.666666v-64H170.666667v64z m437.333333-213.333334h128c17.066667 0 32-14.933333 32-32s-14.933333-32-32-32h-128c-17.066667 0-32 14.933333-32 32s14.933333 32 32 32z m0-149.333333h128c17.066667 0 32-14.933333 32-32s-14.933333-32-32-32h-128c-17.066667 0-32 14.933333-32 32s14.933333 32 32 32z"  horiz-adv-x="1024" />

    
    <glyph glyph-name="menhu" unicode="&#59632;" d="M876.544 748.544v-729.088H147.456V748.544h729.088m0 92.842667H147.456C96.256 841.386667 54.613333 799.744 54.613333 748.544v-729.088c0-51.2 41.642667-92.842667 92.842667-92.842667h729.088c51.2 0 92.842667 41.642667 92.842667 92.842667V748.544c0 51.2-41.642667 92.842667-92.842667 92.842667z m0 0M653.312 641.365333H764.586667v-92.842666H653.312V641.365333z m0-208.213333H764.586667v-92.842667H653.312V433.152z m-394.581333-218.453333H764.586667v-92.842667H258.730667V214.698667z m0 436.224h288.085333v-315.392H258.730667V650.922667z m0 0"  horiz-adv-x="1024" />

    
    <glyph glyph-name="layer" unicode="&#59633;" d="M66.81735017 242.32573155l156.31031813-75.03532183L512.1657009 27.302924640000015l278.73609702 135.0462325 166.69510416 79.83935336a82.85044939 82.85044939 0 0 0-38.77401031-109.99691693L548.28849683-47.26377434999995a82.85044939 82.85044939 0 0 0-72.24559186 0l-370.53568948 179.45407337a82.85044939 82.85044939 0 0 0-38.68986532 110.13543253z m890.42096482 173.37751072a82.85044939 82.85044939 0 0 0-38.41542322-110.74257098L548.26131152 125.50659791999999a82.85044939 82.85044939 0 0 0-72.24559186 0L105.50851003 304.96067129000005a82.85044939 82.85044939 0 0 0-40.34816886 106.37997701L475.54580227 217.77481323999996l36.61989863-17.72999617 370.53568948 179.45407336-0.19418075 0.08285046 74.73110536 36.09431608zM548.28849683 806.29003504L918.79570647 626.86185245a82.85044939 82.85044939 0 0 0 0-149.1308089L548.28849683 298.27697019000004a82.85044939 82.85044939 0 0 0-72.24559186 0l-370.53568948 179.45407336a82.85044939 82.85044939 0 0 0 0 149.1308089l370.53568948 179.39970275a82.85044939 82.85044939 0 0 0 72.24559186 0z m-36.12279593-74.56540445l-370.53568949-179.42688805 370.53568949-179.45407337 370.53568948 179.45407337-370.53568948 179.42688805z"  horiz-adv-x="1024" />

    
    <glyph glyph-name="jia1" unicode="&#59572;" d="M554.666667 426.666667V768a42.666667 42.666667 0 0 1-85.333334 0v-341.333333H128a42.666667 42.666667 0 0 1 0-85.333334h341.333333v-341.333333a42.666667 42.666667 0 0 1 85.333334 0v341.333333h341.333333a42.666667 42.666667 0 0 1 0 85.333334h-341.333333z"  horiz-adv-x="1024" />

    
    <glyph glyph-name="jiazhilian" unicode="&#59631;" d="M922.51212155-62.481818259999955L536.85757585-62.48181824999995a33.72727237 33.72727237 0 0 0-33.72727324 33.72727324L503.1303026 356.90909122000005a33.72727237 33.72727237 0 0 0 33.72727324 33.72727235l385.65454572 0a33.72727237 33.72727237 0 0 0 33.73636289-33.72727236l1e-8-385.65454571a33.72727237 33.72727237 0 0 0-33.72727238-33.73636376z m-351.90909141 67.47272753l318.18181817 0 0 318.18181817-318.18181817 0 0-318.18181816zM466.53939372 380.69999971000004L80.89393943 380.69999971000004a33.72727237 33.72727237 0 0 0-33.72727237 33.72727323L47.16666706 800.09090918A33.72727237 33.72727237 0 0 0 80.88484889 833.81818154l385.65454483 0a33.72727237 33.72727237 0 0 0 33.73636377-33.72727237l0-385.6545457a33.72727237 33.72727237 0 0 0-33.72727236-33.73636376z m-351.90909053 67.47272753l318.18181818 0-1e-8 318.18181818-318.18181817 0 0-318.18181818zM381.93939372 22.03636346999997L165.41212117 22.03636346999997a33.72727237 33.72727237 0 0 0-33.72727237 33.72727325L131.6848488 272.4a33.72727237 33.72727237 0 0 0 33.72727237 33.72727237L381.93939372 306.12727237a33.72727237 33.72727237 0 0 0 33.73636377-33.72727237l0-216.61818223a33.72727237 33.72727237 0 0 0-33.72727236-33.73636289z m-182.7909088 67.46363614L348.21212136 89.49999961000003 348.21212136 238.65454569999997 199.14848493 238.65454569999997l-1e-8-149.15454609zM273.72121227 238.65454569999997a33.72727237 33.72727237 0 0 0-33.72727323 33.72727236L239.99393904 414.44545488a33.72727237 33.72727237 0 0 0 33.72727324 33.72727236 33.72727237 33.72727237 0 0 0 33.73636377-33.72727236l0-142.04545489c0-18.72727296-15.09090908-33.73636379-33.72727326-33.73636376z m263.13636358-108.30909111l-154.90909072 0a33.72727237 33.72727237 0 0 0-33.73636377 33.72727236 33.72727237 33.72727237 0 0 0 33.72727236 33.74545517l154.91818212 0a33.72727237 33.72727237 0 0 0 33.73636378-33.73636376 33.72727237 33.72727237 0 0 0-33.72727324-33.73636377zM846.61212097 454.02727296L612.75757555 454.02727295a36.39090937 36.39090937 0 0 0-36.3999999 36.39999991L576.35757565 724.44545479a36.39090937 36.39090937 0 0 0 36.39999989 36.3999999l233.8454549 1e-8a36.39090937 36.39090937 0 0 0 36.39999992-36.39999991l-1e-8-233.83636348a36.42727237 36.42727237 0 0 0-36.39999991-36.58181836z m-197.36363584 72.97272685L810.21212108 526.99999981 810.21212107 687.96363662 649.25757565 687.96363662 649.25757566 526.99999981z"  horiz-adv-x="1044" />

    
    <glyph glyph-name="uprank" unicode="&#59630;" d="M499.385 264.074zM283.116 738.31l-215.91-287.822h140.772v-420.799h150.299v420.796h140.769l-215.929 287.825zM572.456 30.091v86.369h384.338v-86.369h-384.338zM572.456 271.92v-86.366h306.607v86.366h-306.607zM572.456 427.38v-86.366h228.876v86.366h-228.876zM572.456 582.843v-86.366h151.146v86.366h-151.146zM572.456 738.31v-86.37h73.411v86.37h-73.411z"  horiz-adv-x="1024" />

    
    <glyph glyph-name="zhuanhuan1" unicode="&#59629;" d="M947.29220077 503.11764726c0-4.41176484 0-13.23529453-4.41176485-17.64705937v-4.41176396c0-4.41176484-4.41176484-8.82352969-8.8235297-13.23529453-4.41176484 0-4.41176484-4.41176484-8.82352967-4.41176485h-4.41176397c-4.41176484-4.41176484-8.82352969-4.41176484-17.64705937-4.41176484H109.05690593c-22.05882334 0-44.11764668 17.64705849-44.11764667 44.11764755 0 22.05882334 17.64705849 44.11764668 44.11764667 44.11764668h692.64705939l-167.64705878 167.6470588c-17.64705849 17.64705849-17.64705849 44.11764668 0 61.76470605 17.64705849 17.64705849 44.11764668 17.64705849 61.76470604 0l238.23529365-242.6470585 4.41176486-4.41176484c0-4.41176484 4.41176484-4.41176484 4.41176483-8.82352969 4.41176484-8.82352969 4.41176484-13.23529453 4.41176485-17.64705847z m-44.11764756-211.76470634c22.05882334 0 44.11764668-17.64705849 44.11764756-44.11764668s-17.64705849-44.11764668-44.11764756-44.11764756H214.93925954l167.6470588-167.64705879c17.64705849-17.64705849 17.64705849-44.11764668 0-61.76470519l-4.41176484-4.41176483c-17.64705849-17.64705849-44.11764668-17.64705849-61.76470606 0L78.17455378 207.52941152999995c-8.82352969 17.64705849-13.23529453 26.47058818-13.23529452 39.70588271 0 22.05882334 17.64705849 44.11764668 44.11764667 44.11764668h794.11764728z"  horiz-adv-x="1024" />

    
    <glyph glyph-name="shuxian" unicode="&#59628;" d="M632.3 831.057H830.84v-893.42H632.3V831.058z"  horiz-adv-x="1024" />

    
    <glyph glyph-name="address" unicode="&#59626;" d="M873.46583333-66H182.41583362a64.35 64.35 0 0 0-64.27500029 64.27500029v112.5a32.175 32.175 0 0 0 64.27500029 0v-112.5H873.46583333V769.72499971H182.41583362v-144.675a32.175 32.175 0 0 0-64.27500029 0V769.72499971c0 35.47500029 28.8 64.19999971 64.27500029 64.27500029H873.46583333c35.47500029 0 64.27500029-28.8 64.27500029-64.27500029v-771.44999942A64.35 64.35 0 0 0 873.46583333-66zM182.41583362 207.22499971000002H118.14083333a32.175 32.175 0 0 0 0 64.27500029h64.27500029a32.175 32.175 0 0 0 0-64.27500029z m0 128.55000058H118.14083333a32.175 32.175 0 1 0 0 64.27499942h64.27500029a32.175 32.175 0 1 0 0-64.27499942z m0 128.54999971H118.14083333a32.175 32.175 0 0 0 0 64.35h64.27500029a32.175 32.175 0 0 0 0-64.35z m337.5-144.60000029a160.875 160.875 0 0 0-160.72500058 160.72500058c0 88.57500029 72.07499971 160.72499971 160.72500058 160.72499971 88.57500029 0 160.72499971-72.15000029 160.72499971-160.72499971a160.875 160.875 0 0 0-160.72499971-160.72500058z m0 257.10000029a96.45000029 96.45000029 0 1 1 0-192.825 96.45000029 96.45000029 0 0 1 0 192.825zM712.74083362 126.82500000000005A32.175 32.175 0 0 0 680.71583304 159a160.875 160.875 0 0 1-160.72499971 160.72499971A160.875 160.875 0 0 1 359.19083304 159a32.175 32.175 0 0 0-64.27499942 0 225 225 0 1 0 450 0 32.175 32.175 0 0 0-32.175-32.175zM873.46583333-66H182.41583362a64.35 64.35 0 0 0-64.27500029 64.27500029v112.5a32.175 32.175 0 0 0 64.27500029 0v-112.5H873.46583333V769.72499971H182.41583362v-144.675a32.175 32.175 0 0 0-64.27500029 0V769.72499971c0 35.47500029 28.8 64.19999971 64.27500029 64.27500029H873.46583333c35.47500029 0 64.27500029-28.8 64.27500029-64.27500029v-771.44999942A64.35 64.35 0 0 0 873.46583333-66zM182.41583362 207.22499971000002H118.14083333a32.175 32.175 0 0 0 0 64.27500029h64.27500029a32.175 32.175 0 0 0 0-64.27500029z m0 128.55000058H118.14083333a32.175 32.175 0 1 0 0 64.27499942h64.27500029a32.175 32.175 0 1 0 0-64.27499942z m0 128.54999971H118.14083333a32.175 32.175 0 0 0 0 64.35h64.27500029a32.175 32.175 0 0 0 0-64.35z m337.5-144.60000029a160.875 160.875 0 0 0-160.72500058 160.72500058c0 88.57500029 72.07499971 160.72499971 160.72500058 160.72499971 88.57500029 0 160.72499971-72.15000029 160.72499971-160.72499971a160.875 160.875 0 0 0-160.72499971-160.72500058z m0 257.10000029a96.45000029 96.45000029 0 1 1 0-192.825 96.45000029 96.45000029 0 0 1 0 192.825zM712.74083362 126.82500000000005A32.175 32.175 0 0 0 680.71583304 159a160.875 160.875 0 0 1-160.72499971 160.72499971A160.875 160.875 0 0 1 359.19083304 159a32.175 32.175 0 0 0-64.27499942 0 225 225 0 1 0 450 0 32.175 32.175 0 0 0-32.175-32.175z"  horiz-adv-x="1026" />

    
    <glyph glyph-name="clock" unicode="&#59627;" d="M512 834a450 450 0 1 1 0-900A450 450 0 1 1 512 834z m273.44999971-723.44999971A384.75 384.75 0 0 0 512-2.700000290000048a384.525 384.525 0 0 0-273.44999971 113.25000058A384.75 384.75 0 0 0 125.29999971 384a384.45000029 384.45000029 0 0 0 113.25000058 273.44999971A384.75 384.75 0 0 0 512 770.70000029a384.525 384.525 0 0 0 273.44999971-113.25000058A384.75 384.75 0 0 0 898.70000029 384a384.45000029 384.45000029 0 0 0-113.25000058-273.44999971zM706.24999971 391.04999971H543.65000029V601.9500002899999a31.65000029 31.65000029 0 1 1-63.30000058 0v-210.90000058c0-35.02500029 28.27500029-63.29999971 63.30000058-63.29999971H706.24999971a31.65000029 31.65000029 0 1 1 0 63.29999971z"  horiz-adv-x="1024" />

    
    <glyph glyph-name="debug" unicode="&#59625;" d="M960.29931641 321.24521484c0-9.7171875-3.54550781-18.12304688-10.6444336-25.22197265-7.09980469-7.09980469-15.50390625-10.65058594-25.21582031-10.65058594H798.91455078c0-63.88769531-12.51123047-118.0546875-37.54511719-162.50888672l116.55615235-117.12568359c7.09892578-7.08925781 10.65058594-15.49951172 10.65058593-25.21582032 0-9.71279297-3.54638672-18.11865234-10.65058593-25.21757812-6.72626953-7.08925781-15.12597656-10.64091797-25.21582032-10.64091797-10.08632812 0-18.4921875 3.55166016-25.21669921 10.64091797L716.53730469 65.70146483999997c-1.86767578-1.86152344-4.66699219-4.29257813-8.40146485-7.28085937-3.74326172-2.98652344-11.58398438-8.31708984-23.5415039-15.97148438-11.95224609-7.65966797-24.09521484-14.47822266-36.421875-20.45742187-12.33105469-5.97480469-27.65214844-11.39589844-45.95800782-16.25361328-18.30498047-4.84980469-36.42802734-7.28261719-54.35332031-7.28261719V500.55439453H476.13183594v-502.09892578c-19.04414062 0-38.01269531 2.52685547-56.87226563 7.57177734-18.87275391 5.04052734-35.12109375 11.20605469-48.75820312 18.4921875-13.63974609 7.28613281-25.96464844 14.56523438-36.98261719 21.85576172-11.02236328 7.28613281-19.14257813 13.35322266-24.38085938 18.20654297l-8.40058593 7.85039063L198.18652344-43.5703125c-7.47070313-7.84072266-16.43554688-11.76591797-26.89980469-11.76591797-8.96484375 0-16.99365234 2.99267578-24.08994141 8.96748047-7.10068359 6.72539063-10.93095703 15.03808594-11.49609375 24.93632812-0.55722656 9.89912109 2.33701172 18.58271484 8.69501954 26.0569336l113.19169921 127.20146484c-21.66503906 42.59619141-32.50195313 93.77929688-32.50195312 153.55371094H99.56357422c-9.71894531 0-18.12041016 3.55166016-25.21582031 10.6453125-7.1015625 7.10332031-10.65234375 15.50478516-10.65234375 25.22197266 0 9.71191406 3.55078125 18.12304688 10.65234375 25.21582031 7.09541016 7.09453125 15.496875 10.64091797 25.21582031 10.64091797h125.52099609V521.85029297L128.13769531 618.7954101600001c-7.09716797 7.09980469-10.64707031 15.50478516-10.64707031 25.21757812 0 9.71191406 3.55517578 18.12304688 10.64707031 25.21582031 7.09453125 7.09892578 15.50390625 10.65498047 25.21757813 10.65498047 9.71806641 0 18.11601562-3.56132813 25.21757812-10.65498047l96.94511719-96.94511718h472.96494141l96.94599609 96.94511718c7.09277344 7.09892578 15.496875 10.65498047 25.21582031 10.65498047 9.71191406 0 18.12128906-3.56132813 25.21582031-10.65498047 7.09980469-7.09277344 10.65146484-15.50390625 10.65146485-25.21582031s-3.55166016-18.11865234-10.65234375-25.21757812L798.91630859 521.85029297v-164.74921875h125.521875c9.7171875 0 18.12216797-3.54638672 25.21582032-10.64707031 7.09980469-7.09277344 10.65146484-15.50302734 10.65146484-25.20966797h-0.00527344zM691.31533203 644.01738281H332.67675781c0 49.68105469 17.46474609 91.99335937 52.396875 126.92636719 34.92246094 34.93300781 77.24091797 52.39335937 126.92373047 52.39335937 49.68457031 0 92.00302734-17.46035156 126.92548828-52.39335937 34.93476563-34.93212891 52.39335937-77.2453125 52.39335938-126.92636719z"  horiz-adv-x="1024" />

    
    <glyph glyph-name="danao" unicode="&#59623;" d="M718.22719092 421.17527438m-67.83606671 0a67.8360667 67.8360667 0 1 1 135.67213341 0 67.8360667 67.8360667 0 1 1-135.67213341 0ZM440.09931778 612.81216285m-117.01721544 0a117.01721543 117.01721543 0 1 1 234.03442973 0 117.01721543 117.01721543 0 1 1-234.03442973 0ZM830.15670103 748.4842951200001c-59.35655822 64.44426354-135.67213341 125.49672277-327.30902187 127.19262492-74.61967303 0-188.2450853-16.95901696-278.12787314-110.23360796-54.26885291-55.96475506-93.27459214-128.88852707-81.40328049-245.90574138 1.69590215-25.43852544 39.0057381-54.26885291 13.56721379-103.45000163 0 0-54.26885291-96.66639531-52.57295189-111.92951011 0 0-1.69590215-28.83032861 44.09344341-30.52622962 0 0 11.87131165-1.69590215 8.47950848-27.13442646v-35.61393493s1.69590215-10.17540949 22.04672114-16.95901696c0 0 3.39180317-3.39180317-1.69590101-10.17541063 0 0-10.17540949-11.87131165 6.78360633-37.30983595 6.78360633-8.47950848 16.95901696-20.35082013 10.17541063-44.09344341 0 0-8.47950848-45.78934443 10.17540949-55.96475506 0 0 20.35082013-23.74262329 101.75409948-13.5672138 28.83032861 3.39180317 81.4032805 16.95901696 113.62541227-22.04672113 0 0 54.26885291-88.18688683 61.05246037-122.10491961 0 0 161.11065771 120.40901859 318.82951226 156.02295239 0 0-50.87704974 140.75983872 27.13442758 252.68934883 0 0 98.36229632 128.88852707 100.05819734 200.11639695 0-5.08770531 25.43852544 113.62541113-96.66639417 250.99344555zM553.7247289 473.74822628c-3.39180317-3.39180317-8.47950848-6.78360633-13.56721265-8.47950848-5.08770531-3.39180317-11.87131165-6.78360633-16.95901696-10.17541063V417.78347122l-15.26311481-5.08770532c-3.39180317-1.69590215-6.78360633-1.69590215-8.47950848-3.39180316-6.78360633 10.17540949-15.26311481 18.65491797-22.04672228 28.8303286-8.47950848-1.69590215-15.26311481-3.39180317-23.74262328-3.3918043-5.08770531-10.17540949-10.17540949-22.04672114-15.26311482-33.91803278 0 0 0-1.69590215-1.69590101-1.69590215-8.47950848 0-16.95901696 1.69590215-25.43852544 1.69590215-3.39180317 11.87131165-6.78360633 25.43852544-10.17540949 37.30983708 0 1.69590215-1.69590215 1.69590215-3.3918043 1.69590102-8.47950848 1.69590215-15.26311481 5.08770531-22.04672114 6.78360633-10.17540949-8.47950848-20.35082013-16.95901696-28.8303286-25.43852431-6.78360633 3.39180317-15.26311481 8.47950848-22.04672114 13.56721266 1.69590215 13.56721379 5.08770531 25.43852544 6.78360632 39.00573924-6.78360633 5.08770531-13.56721379 11.87131165-18.65491797 18.65491797-1.69590215 1.69590215-3.39180317 3.39180317-5.08770531 6.78360633-11.87131165-3.39180317-23.74262329-5.08770531-37.30983709-8.47950848h-1.69590101c-5.08770531 6.78360633-8.47950848 15.26311481-13.5672138 22.04672228l25.43852544 30.52622962c-3.39180317 6.78360633-5.08770531 15.26311481-8.47950848 23.74262328-11.87131165 3.39180317-25.43852544 5.08770531-37.30983708 6.78360633-1.69590215 8.47950848-1.69590215 16.95901696-3.39180316 25.43852544 11.87131165 5.08770531 22.04672114 11.87131165 33.91803392 16.95901696 0 10.17540949 0 18.65491797 1.69590101 27.13442645-10.17540949 6.78360633-18.65491797 13.56721379-28.83032747 20.35082013 0 0-3.39180317 1.69590215-1.69590215 3.39180317 1.69590215 6.78360633 3.39180317 13.56721379 6.78360633 20.35082012 0 1.69590215 0 1.69590215 1.69590215 3.39180316 11.87131165 0 23.74262329 0 35.61393493 1.69590216 1.69590215 0 3.39180317 0 3.39180317 1.69590101 3.39180317 6.78360633 6.78360633 11.87131165 10.17540949 18.65491797 1.69590215 1.69590215 3.39180317 5.08770531 3.3918043 6.78360747-5.08770531 11.87131165-11.87131165 22.04672114-16.95901696 33.91803278 5.08770531 6.78360633 11.87131165 11.87131165 16.95901696 18.65491911l35.61393494-15.26311594c3.39180317 3.39180317 8.47950848 6.78360633 13.56721266 8.47950848 5.08770531 3.39180317 11.87131165 6.78360633 16.95901696 10.17541062v1.69590102 11.87131164 23.74262329l15.2631148 5.08770532c3.39180317 1.69590215 6.78360633 1.69590215 8.47950848 3.39180316 3.39180317-11.87131165 11.87131165-20.35082013 18.65491798-30.52622961 8.47950848 0 15.26311481 1.69590215 23.74262328 1.69590101v1.69590215c5.08770531 11.87131165 10.17540949 22.04672114 15.26311482 33.91803278 8.47950848 0 16.95901696-1.69590215 25.43852544-1.69590101 3.39180317-11.87131165 6.78360633-23.74262329 8.47950848-35.61393493 8.47950848-1.69590215 15.26311481-3.39180317 23.74262328-6.78360634 1.69590215 0 3.39180317-1.69590215 5.08770532 0 10.17540949 5.08770531 18.65491797 13.56721379 27.13442645 20.35081899 6.78360633-5.08770531 15.26311481-8.47950848 22.04672114-13.56721265-1.69590215-11.87131165-5.08770531-23.74262329-6.78360633-35.61393494 0-1.69590215 3.39180317-3.39180317 5.08770532-5.08770532 5.08770531-5.08770531 10.17540949-10.17540949 15.2631148-13.56721379l35.61393494 10.17541063c1.69590215-3.39180317 3.39180317-5.08770531 5.08770532-8.47950848 3.39180317-3.39180317 5.08770531-6.78360633 8.47950848-11.87131164 0 0 1.69590215-1.69590215 0-3.39180317-6.78360633-10.17540949-15.26311481-20.35082013-22.04672228-30.52622961 1.69590215-5.08770531 5.08770531-10.17540949 6.78360633-15.26311595l5.08770531-15.26311481c11.87131165-3.39180317 25.43852544-5.08770531 37.30983709-6.78360633 1.69590215-8.47950848 1.69590215-16.95901696 3.39180316-25.43852544-11.87131165-5.08770531-22.04672114-11.87131165-33.91803392-16.95901582 0-8.47950848 0-18.65491797-1.69590101-27.13442759 10.17540949-6.78360633 20.35082013-15.26311481 30.52622962-22.04672114-1.69590215-6.78360633-5.08770531-13.56721379-6.78360633-20.35082012 0-1.69590215-1.69590215-3.39180317-1.69590215-3.39180317-13.56721379 0-25.43852544 0-39.0057381-1.69590215-3.39180317-6.78360633-6.78360633-13.56721379-10.1754095-18.65491798-1.69590215-1.69590215-3.39180317-5.08770531-3.39180316-6.78360632 5.08770531-11.87131165 11.87131165-22.04672114 16.95901582-33.91803392-5.08770531-6.78360633-11.87131165-11.87131165-16.95901582-18.65491798-8.47950848 3.39180317-18.65491797 8.47950848-30.52623076 13.5672138z m289.99918479-83.09918265c-1.69590215-3.39180317-3.39180317-8.47950848-3.39180317-11.87131165v-1.69590101h-23.74262328c-1.69590215-3.39180317-3.39180317-8.47950848-6.78360634-11.87131164 0-1.69590215-1.69590215-3.39180317-1.69590214-3.39180317l10.17541062-20.35082012c-3.39180317-3.39180317-6.78360633-6.78360633-10.17541062-11.87131164l-20.35082013 10.17540949c-3.39180317-1.69590215-5.08770531-3.39180317-8.47950848-5.08770418-3.39180317-1.69590215-6.78360633-3.39180317-10.17540949-6.78360747v-23.74262328c-3.39180317-1.69590215-6.78360633-1.69590215-10.1754095-3.39180317-1.69590215 0-3.39180317-1.69590215-5.08770531-1.69590215-5.08770531 5.08770531-8.47950848 11.87131165-13.5672138 16.95901696-5.08770531-1.69590215-10.17540949-1.69590215-13.56721265-1.69590102-3.39180317-6.78360633-5.08770531-13.56721379-8.47950848-20.35082012v-1.69590215c-5.08770531 0-10.17540949 1.69590215-15.26311482 1.69590215-1.69590215 6.78360633-3.39180317 15.26311481-5.08770531 22.04672114 0 1.69590215-1.69590215 0-1.69590215 1.69590215-5.08770531 1.69590215-8.47950848 3.39180317-13.56721266 5.08770531-6.78360633-5.08770531-11.87131165-10.17540949-18.65491911-15.26311594-5.08770531 3.39180317-8.47950848 5.08770531-13.56721266 8.47950848 1.69590215 8.47950848 3.39180317 15.26311481 5.08770532 23.74262329-3.39180317 3.39180317-8.47950848 6.78360633-11.87131165 10.17541063-5.08770531 0-6.78360633 0-6.78360746 1.69590101-6.78360633-1.69590215-15.26311481-3.39180317-22.04672114-5.08770417h-1.69590215c-3.39180317 5.08770531-5.08770531 8.47950848-8.47950848 13.56721265 5.08770531 6.78360633 10.17540949 11.87131165 15.26311595 18.65491797-1.69590215 5.08770531-3.39180317 8.47950848-5.08770532 13.5672138-6.78360633 1.69590215-15.26311481 3.39180317-22.04672228 5.08770532 0 5.08770531-1.69590215 10.17540949-1.69590101 15.2631148l20.35082013 10.1754095c0 5.08770531 0 11.87131165 1.69590101 16.95901696-5.08770531 3.39180317-11.87131165 8.47950848-16.95901583 11.87131164l-1.69590214 1.69590216c1.69590215 3.39180317 1.69590215 8.47950848 3.39180316 11.87131164v1.69590101H621.56079561c1.69590215 3.39180317 3.39180317 6.78360633 6.78360633 10.17541063 0 1.69590215 1.69590215 3.39180317 1.69590215 3.39180317l-10.17540949 20.35082012c3.39180317 3.39180317 6.78360633 6.78360633 10.17540949 11.87131165l20.35082012-10.17541064c3.39180317 1.69590215 5.08770531 3.39180317 8.47950848 5.08770532 3.39180317 1.69590215 6.78360633 3.39180317 10.17540949 6.78360633v1.69590215 6.78360633 15.26311481c3.39180317 1.69590215 6.78360633 1.69590215 10.17541064 3.3918043 1.69590215 0 3.39180317 1.69590215 5.08770418 1.69590102 5.08770531-5.08770531 8.47950848-11.87131165 13.56721379-16.95901696 5.08770531 0 8.47950848 1.69590215 13.56721379 1.69590214 3.39180317 6.78360633 5.08770531 13.56721379 8.47950735 20.35082013 5.08770531 0 10.17540949 0 15.26311595-1.69590215 1.69590215-6.78360633 3.39180317-15.26311481 5.08770417-22.04672114 5.08770531-1.69590215 10.17540949-1.69590215 13.5672138-5.08770532 1.69590215 0 1.69590215-1.69590215 3.39180316 0 5.08770531 5.08770531 10.17540949 10.17540949 16.95901696 13.5672138 5.08770531-3.39180317 8.47950848-5.08770531 13.56721266-8.47950848-1.69590215-6.78360633-3.39180317-15.26311481-3.39180317-22.04672228 0-1.69590215 1.69590215-1.69590215 3.39180317-3.39180316 3.39180317-3.39180317 6.78360633-5.08770531 8.47950848-8.47950848 6.78360633 1.69590215 15.26311481 5.08770531 22.04672227 6.78360747 1.69590215-1.69590215 1.69590215-3.39180317 3.39180317-5.08770532 1.69590215-1.69590215 3.39180317-5.08770531 5.08770531-6.78360633 0 0 1.69590215-1.69590215 0-1.69590215-5.08770531-6.78360633-8.47950848-11.87131165-13.56721379-18.65491797 1.69590215-3.39180317 3.39180317-6.78360633 3.39180317-10.17541063 1.69590215-3.39180317 1.69590215-6.78360633 3.39180316-10.17540949 6.78360633-1.69590215 15.26311481-3.39180317 22.04672228-5.08770532 1.69590215-5.08770531 1.69590215-10.17540949 1.69590101-15.26311481l-20.35082013-10.17541063c0-5.08770531 0-11.87131165-1.69590101-16.95901582 10.17540949 3.39180317 16.95901696-1.69590215 22.04672114-6.78360747z"  horiz-adv-x="1024" />

    
    <glyph glyph-name="shujushitu" unicode="&#59624;" d="M195.84-59.733333h-117.333333c-5.546667 0-10.24 4.693333-10.24 10.24v231.253333c0 5.546667 4.693333 10.24 10.24 10.24h117.333333c5.546667 0 10.24-4.693333 10.24-10.24v-231.253333c-0.426667-5.546667-4.693333-10.24-10.24-10.24z m197.546667 10.24v306.773333c0 5.546667-4.693333 10.24-10.24 10.24H265.813333c-5.546667 0-10.24-4.693333-10.24-10.24v-306.773333c0-5.546667 4.693333-10.24 10.24-10.24h117.333334c5.546667 0 10.24 4.693333 10.24 10.24z m187.306666 0V407.893333c0 5.546667-4.693333 10.24-10.24 10.24H453.12c-5.546667 0-10.24-4.693333-10.24-10.24v-457.386666c0-5.546667 4.693333-10.24 10.24-10.24h117.333333c5.973333 0 10.24 4.693333 10.24 10.24z m187.733334-1.28v359.253333c0 5.12-3.84 8.96-8.96 8.96H640c-5.12 0-8.96-3.84-8.96-8.96v-359.253333c0-5.12 3.84-8.96 8.96-8.96h119.466667c4.693333 0 8.96 4.266667 8.96 8.96z m187.306666 2.56V569.6c0 6.4-5.12 11.52-11.52 11.52h-114.346666c-6.4 0-11.52-5.12-11.52-11.52v-617.813333c0-6.4 5.12-11.52 11.52-11.52h114.346666c6.4 0 11.52 5.12 11.52 11.52zM887.04 827.733333c-19.2 0-34.986667-15.786667-34.986667-34.986666 0-3.413333 0.853333-6.826667 1.706667-9.813334l-152.746667-212.906666h-1.28c-8.106667 0-15.36-2.986667-21.333333-7.253334l-136.533333 71.253334c-3.413333 15.786667-17.493333 27.733333-34.133334 27.733333-19.2 0-34.986667-15.786667-34.986666-34.986667 0-1.706667 0.426667-3.84 0.426666-5.546666l-133.973333-109.653334c-4.693333 2.133333-9.813333 3.413333-14.933333 3.413334-18.346667 0-33.28-14.506667-34.56-32.426667l-132.693334-55.04c-5.973333 5.12-13.653333 8.106667-22.186666 8.106667-19.2 0-34.986667-15.786667-34.986667-34.986667s15.786667-34.986667 34.986667-34.986667c17.493333 0 31.573333 12.8 34.56 29.44l135.68 56.32c5.546667-3.84 12.373333-5.973333 19.626666-5.973333 19.2 0 34.986667 15.786667 34.986667 34.986667 0 0.853333 0 1.706667-0.426667 2.56l136.106667 111.786666c3.84-1.28 8.106667-2.56 12.373333-2.56 8.96 0 16.64 3.413333 23.04 8.96l133.973334-70.4c2.133333-17.066667 16.64-30.293333 34.56-30.293333 19.2 0 34.986667 15.786667 34.986666 34.986667 0 5.973333-1.706667 11.52-4.266666 16.213333L878.933333 759.04c2.56-0.426667 5.12-0.853333 7.68-0.853333 19.2 0 34.986667 15.786667 34.986667 34.986666 0.426667 18.773333-15.36 34.56-34.56 34.56z"  horiz-adv-x="1024" />

    
    <glyph glyph-name="xiaoyanjing" unicode="&#59622;" d="M520.064 738.882c95.636 0.226 184.531-30.48 262.791-81.332 85.974-55.793 159.144-136.153 214.188-226.32l0.901-1.499c9.209-15.952 14.604-40.216 14.752-63.057V365.999c0-22.018-5.018-44.335-16.026-59.462-57.44-90.919-120.876-167.906-197.187-222.58-77.964-55.865-168.807-88.218-279.419-88.218-98.034 0-187.454 31.303-264.519 80.354-89.12 56.845-161.464 137.652-210.892 221.155l-0.375 0.525c-12.283 21.943-19.098 44.935-19.098 69.724 0 24.115 6.59 49.578 21.12 76.688l0.525 0.824-0.077 0.074C96.252 530.534 168.523 605.8 253.224 658.597c80.208 49.954 171.953 80.06 266.84 80.285z m231.412-129.486c-69.35 45.009-147.686 72.196-231.411 72.046-83.43-0.15-164.763-27.111-236.434-71.745C206.87 561.84 141.415 493.69 96.554 416.176l-0.076 0.076c-9.361-17.75-13.63-33.926-13.63-48.754 0-14.379 4.196-28.159 11.683-41.564 45.309-76.315 111.141-150.007 191.873-201.384 68.148-43.438 147.162-71.146 233.661-71.146 97.584 0 177.414 28.385 245.867 77.437 69.947 50.177 128.81 121.923 182.66 207.149 0.521 0.823 1.046 1.647 1.646 2.396 3.52 4.494 5.018 14.678 5.018 26.063v0.147c-0.076 13.332-2.548 26.362-6.664 33.702l-0.678 0.974c-50.775 83.205-117.878 157.124-196.438 208.124z m-232.538-36.249c56.694 0 108.143-23.065 145.438-60.286v-0.076h0.076l0.225-0.225c37.146-37.22 60.065-88.595 60.065-145.213s-22.992-108.067-60.29-145.363l-0.076-0.075-0.224-0.15c-37.219-37.146-88.595-60.137-145.214-60.137-56.615 0-108.068 22.991-145.363 60.287l-0.076 0.075-0.148 0.224c-37.146 37.222-60.137 88.597-60.137 145.14 0 56.693 23.068 108.144 60.286 145.438h0.076v0.076l0.226 0.225c37.293 37.069 88.594 60.06 145.136 60.06z m104.773-100.952c-26.734 26.737-63.731 43.288-104.772 43.288-40.89 0-77.96-16.551-104.698-43.288l-0.072-0.15c-26.738-26.661-43.289-63.656-43.289-104.697 0-40.966 16.55-78.037 43.289-104.697l0.072-0.15c26.738-26.66 63.808-43.212 104.698-43.212 41.041 0 78.038 16.552 104.772 43.212l0.076 0.15c26.735 26.66 43.286 63.731 43.286 104.697 0 41.041-16.551 78.037-43.286 104.697l-0.076 0.15z"  horiz-adv-x="1024" />

    
    <glyph glyph-name="tuozhuai1" unicode="&#59621;" d="M371.375 749.625m-84.375 0a84.375 84.375 0 1 1 168.75 0 84.375 84.375 0 1 1-168.75 0ZM652.625 749.625m-84.375 0a84.375 84.375 0 1 1 168.75 0 84.375 84.375 0 1 1-168.75 0ZM371.375 384m-84.375 0a84.375 84.375 0 1 1 168.75 0 84.375 84.375 0 1 1-168.75 0ZM652.625 384m-84.375 0a84.375 84.375 0 1 1 168.75 0 84.375 84.375 0 1 1-168.75 0ZM371.375 18.375m-84.375 0a84.375 84.375 0 1 1 168.75 0 84.375 84.375 0 1 1-168.75 0ZM652.625 18.375m-84.375 0a84.375 84.375 0 1 1 168.75 0 84.375 84.375 0 1 1-168.75 0Z"  horiz-adv-x="1024" />

    
    <glyph glyph-name="lianjie" unicode="&#59620;" d="M722.39629453 805.21205392c-56.29017892 0-109.20535702-21.9375-148.98214298-61.77455392L415.3315625 585.35491095A209.25 209.25 0 0 1 353.49674143 436.43303595c0-72.08035703 36.34151798-138.375 97.27232107-177.4285719a39.29464297 39.29464297 0 0 1 29.89285703-5.30357107 39.234375 39.234375 0 0 1 30.01339297 47.0089281 39.41517892 39.41517892 0 0 1-17.296875 24.83035785 131.32366094 131.32366094 0 0 0-60.87053595 110.89285702c0 35.19642892 13.74107107 68.28348202 38.63169689 93.11383905l158.08258906 158.08258905a131.86607108 131.86607108 0 0 0 224.859375-93.11383905c0-35.19642892-13.68080393-68.28348202-38.57142893-93.17410702l-74.97321405-74.97321405a39.47544608 39.47544608 0 1 1 55.86830393-55.86830393l74.97321405 74.97321405a209.31026798 209.31026798 0 0 1 61.77455392 149.04241095A210.9375 210.9375 0 0 1 722.33602656 805.21205392zM572.51013358 508.39285702a39.35491095 39.35491095 0 0 1-59.90625-41.70535702 39.29464297 39.29464297 0 0 1 17.23660785-24.83035702 131.32366094 131.32366094 0 0 0 60.87053512-110.89285703c0-35.19642892-13.74107107-68.22321405-38.57142811-93.17410702l-158.08258986-158.02232191a131.92633905 131.92633905 0 0 0-224.859375 93.11383905c0 35.19642892 13.68080393 68.28348202 38.57142892 93.17410785l74.97321405 74.97321405a39.41517892 39.41517892 0 0 1 0 55.8683031 39.35491095 39.35491095 0 0 1-55.8683031 0L151.84049143 321.92410701999995A209.31026798 209.31026798 0 0 1 90.12620548 172.88169607999998 210.99776797 210.99776797 0 0 1 300.88290155-37.875c56.29017892 0 109.20535702 21.9375 149.04241095 61.77455393l158.08258906 158.08258904A209.25 209.25 0 0 1 669.7221875 330.96428595a209.97321405 209.97321405 0 0 1-97.21205393 177.42857108z"  horiz-adv-x="1024" />

    
    <glyph glyph-name="shuipingfenbu-copy" unicode="&#61338;" d="M870.4 140.79999999999995L870.4 64l-716.8 0 0 76.8zM870.4 704l0-76.8-716.8 0L153.6 704zM806.4 332.79999999999995L806.4 435.2c0 49.4-40.2 89.6-89.6 89.6l-409.6 0c-49.4 0-89.6-40.2-89.6-89.6l0-102.4c0-49.4 40.2-89.6 89.6-89.6L716.8 243.20000000000005c49.4 0 89.6 40.2 89.6 89.6zM307.2 320c-7.10000001 0-12.8 5.7-12.8 12.8L294.4 435.2c0 7.10000001 5.7 12.8 12.8 12.8L716.8 448c7.10000001 0 12.8-5.7 12.8-12.8l0-102.4c0-7.10000001-5.7-12.8-12.8-12.8l-409.6 0z"  horiz-adv-x="1024" />

    
    <glyph glyph-name="chuangkouwindow25" unicode="&#59566;" d="M845.88544 779.56096 178.11456 779.56096c-34.21184 0-62.0544-27.82208-62.0544-62.04416L116.06016 50.4832c0-34.2016 27.84256-62.04416 62.0544-62.04416l667.77088 0c34.21184 0 62.0544 27.84256 62.0544 62.04416L907.93984 717.5168C907.93984 751.73888 880.09728 779.56096 845.88544 779.56096zM803.81952 708.93568c14.6944 0 26.59328-11.90912 26.59328-26.60352 0-14.68416-11.89888-26.59328-26.59328-26.59328s-26.59328 11.90912-26.59328 26.59328C777.22624 697.02656 789.12512 708.93568 803.81952 708.93568zM708.52608 708.93568c14.6944 0 26.59328-11.90912 26.59328-26.60352 0-14.68416-11.89888-26.59328-26.59328-26.59328s-26.59328 11.90912-26.59328 26.59328C681.9328 697.02656 693.83168 708.93568 708.52608 708.93568zM837.02784 59.35104 186.97216 59.35104 186.97216 589.73184l650.04544 0L837.0176 59.35104zM728.96512 273.02912l-0.01024 158.37184 79.18592-79.18592L728.96512 273.02912zM295.04512 273.02912l-79.18592 79.18592 79.17568 79.17568L295.04512 273.02912z"  horiz-adv-x="1024" />

    
    <glyph glyph-name="shuxing" unicode="&#59567;" d="M1007.7 806.2H877.1c-9 0-16.3-7.3-16.3-16.3v-36.7H204V810.3c0 9-7.3 16.3-16.3 16.3H16.3C7.3 826.6 0 819.3 0 810.3V639c0-9 7.3-16.3 16.3-16.3h171.3c9 0 16.3 7.3 16.3 16.3v57.1h161.9c-1.8-3.7-2.8-7.9-2.8-12.2V27c0-15.8 12.8-28.6 28.6-28.6 1.4 0 2.7 0.1 4.1 0.3 1.3-0.2 2.7-0.3 4.1-0.3H616v-40.8c0-9 7.3-16.3 16.3-16.3h130.5c9 0 16.3 7.3 16.3 16.3V88.2c0 9-7.3 16.3-16.3 16.3H632.4c-9 0-16.3-7.3-16.3-16.3v-32.6H420.2V382H616v-36.7c0-9 7.3-16.3 16.3-16.3h130.5c9 0 16.3 7.3 16.3 16.3V475.8c0 9-7.3 16.3-16.3 16.3H632.4c-9 0-16.3-7.3-16.3-16.3v-36.7H420.2V683.9c0 4.4-1 8.5-2.8 12.2h443.4v-36.7c0-9 7.3-16.3 16.3-16.3h130.5c9 0 16.3 7.3 16.3 16.3V789.9c0.1 9-7.2 16.3-16.2 16.3z"  horiz-adv-x="1024" />

    
    <glyph glyph-name="baobiaoqianru" unicode="&#59568;" d="M585.386667 134.257778a42.666667 42.666667 0 0 0-29.013334 73.955555l133.12 122.311111a43.235556 43.235556 0 0 0 60.302223 0 42.666667 42.666667 0 0 0 0-60.302222l-135.395556-124.586666a40.96 40.96 0 0 0-29.013333-11.377778zM718.506667 11.377778a42.097778 42.097778 0 0 0-29.013334 11.377778l-133.12 122.88a42.666667 42.666667 0 0 0 56.888889 62.577777l132.551111-122.88a42.666667 42.666667 0 0 0-28.444444-73.955555zM884.053333 134.257778h-298.666666a42.666667 42.666667 0 0 0 0 85.333333h298.666666a42.666667 42.666667 0 0 0 0-85.333333zM468.764444-26.168889H139.946667a42.097778 42.097778 0 0 0-42.666667 42.666667V751.502222a42.097778 42.097778 0 0 0 42.666667 42.666667H739.555556a42.666667 42.666667 0 0 0 42.666666-42.666667v-302.648889a42.666667 42.666667 0 1 0-85.333333 0V708.835556h-512v-649.671112h284.444444a42.666667 42.666667 0 1 0 0-85.333333zM341.333333 191.146667a42.097778 42.097778 0 0 0-42.666666 42.666666v341.333334a42.666667 42.666667 0 0 0 85.333333 0v-341.333334a42.666667 42.666667 0 0 0-42.666667-42.666666zM526.791111 361.813333a42.097778 42.097778 0 0 0-42.666667 42.666667v170.666667a42.666667 42.666667 0 1 0 85.333334 0v-170.666667a42.666667 42.666667 0 0 0-42.666667-42.666667z"  horiz-adv-x="1024" />

    
    <glyph glyph-name="ludanjilu" unicode="&#59569;" d="M369.8-3.8999999999999773H188c-31.05 0-56.7 27.45-56.7 61.2V710.7c0 33.75 25.2 61.2 56.7 61.2h604.8c31.05 0 56.7-27.45 56.7-61.2v-166.05c0-17.1 13.05-31.05 28.8-31.05s28.8 13.95 28.8 31.05V710.7C907.1 778.65 855.8 834 792.8 834H188C125 834 73.7 778.65 73.7 710.7V57.75c0-68.4 51.3-123.75 114.3-123.75h182.25c15.75 0 28.8 13.95 28.8 31.05s-13.05 31.05-29.25 31.05zM392.75 356.54999999999995H252.8c-20.7 0.45-37.35 17.1-36.9 38.25a37.66816406 37.66816406 0 0 0 36.9 36.9H392.75c20.7-0.45 37.35-17.1 36.9-38.25a37.66816406 37.66816406 0 0 0-36.9-36.9zM607.4 573H252.8c-20.7 0.45-37.35 17.1-36.9 38.25a37.66816406 37.66816406 0 0 0 36.9 36.9h354.6c20.7-0.45 37.35-17.1 36.9-38.25 0-20.25-16.2-36.45-36.9-36.9z m292.95-576h-328.5c-17.55 0-31.5-13.5-31.5-30.6s13.95-30.6 31.5-30.6h328.5c17.55 0 31.95 13.5 31.95 30.6s-14.4 30.6-31.95 30.6z m39.6 371.25L848.6 459.6c-12.15 11.7-31.5 11.7-43.65 0L552.5 207.14999999999998c-5.4-5.85-8.55-13.5-8.55-21.6v-92.7c0.45-16.65 13.95-29.25 30.6-28.8h91.35c4.5 0 13.05 4.5 21.6 4.5L939.95 321c13.05 12.6 13.05 34.2 0 47.25zM652.4 128.85000000000002h-47.7V177l221.85 221.85 47.7-47.7-221.85-222.3z"  horiz-adv-x="1024" />

    
    <glyph glyph-name="buju" unicode="&#59570;" d="M96 497.792V800h832v-302.208h-832z m744.128 90.24v120.96H183.872v-120.96h656.256zM96 402.752h387.2V-32H96V402.688z m299.392-344.32V311.552H183.872v-253.312h211.52zM928 336.384v-91.072H593.088V336.448H928z m0-302.208H593.088v90.24H928v-90.24z"  horiz-adv-x="1024" />

    
    <glyph glyph-name="iconziti27" unicode="&#59571;" d="M684.192246-57.890087l-68.867484 0 0 34.43323c0 18.96698-15.46625 34.43323-34.43323 34.43323L443.157587 10.976374c-18.96698 0-34.43323-34.43323-34.43323-34.43323l0-34.43323-68.866461 0c-18.96698 0-34.43323-34.432207-34.43323-34.432207l0-34.43323 413.201833 0 0 34.43323C718.625476-73.356336 703.159226-57.890087 684.192246-57.890087zM856.361467 734.084443 167.687652 734.084443c-57.029878 0-103.300714-46.27186-103.300714-103.302761l0-482.068294c0-57.030901 46.270836-103.302761 103.300714-103.302761l688.673815 0c57.030901 0 103.300714 46.27186 103.300714 103.302761L959.662181 630.781682C959.663204 687.812583 913.393391 734.084443 856.361467 734.084443zM512.024048 81.459658c-27.640524 0-50.03558 22.395056-50.03558 50.03558s22.395056 50.036603 50.03558 50.036603c27.641547 0 50.036603-22.396079 50.036603-50.036603S539.665595 81.459658 512.024048 81.459658zM890.795721 252.013079c0-18.965957-15.46932-34.43323-34.43323-34.43323L167.687652 217.579849c-18.964934 0-34.43323 15.467273-34.43323 34.43323L133.254422 630.781682c0 18.96698 15.468296 34.435277 34.43323 34.435277l688.673815 0c18.96391 0 34.43323-15.468296 34.43323-34.435277L890.794697 252.013079z"  horiz-adv-x="1024" />

    
    <glyph glyph-name="bianji5" unicode="&#59573;" d="M758.721683 582.794625l-112.011096 112.00905 56.029084 56.005548c18.565844 18.540262 48.625464 18.540262 67.190285 0l44.799322-44.799322c18.563798-18.564821 18.563798-48.671513 0-67.234287L758.721683 582.794625 758.721683 582.794625zM433.312358 257.396557 321.298192 369.40663l304.516482 302.121945L737.824747 559.519526 433.312358 257.396557 433.312358 257.396557zM231.311715 165.539476l68.15117 182.03287 111.074771-111.093191L231.311715 165.539476 231.311715 165.539476zM734.338343 127.260661c15.679098 0 28.375258-12.698207 28.375258-28.378327 0-15.653515-12.69616-28.348652-28.375258-28.348652L232.633826 70.533682c-15.654538 0-28.351722 12.695137-28.351722 28.348652 0 15.680121 12.69616 28.378327 28.351722 28.378327L734.338343 127.260661 734.338343 127.260661z"  horiz-adv-x="1024" />

    
    <glyph glyph-name="mofabang" unicode="&#59574;" d="M680.09082031 510.98209636l137.95642091 137.95806885-50.38110352 50.38110351-137.9564209-137.9564209z m210.46618653 137.95806885q0-12.71392823-8.47540283-21.18768312L276.57891846 22.249796550000042Q268.10351562 13.774393720000035 255.39123535 13.774393720000035t-21.18768311 8.47540283L140.97576904 115.47757976000003q-8.47540283 8.47540283-8.47540283 21.1876831t8.47540283 21.18768311L746.47845459 763.35563151q8.47540283 8.47540283 21.18768311 8.47540284t21.1876831-8.47540284l93.22778321-93.2277832q8.47540283-8.47540283 8.47540282-21.1876831zM254.45025635 738.39908855l46.14257812-14.12622071-46.14257812-14.1262207-14.1262207-46.14257813-14.12622071 46.14257813-46.14257812 14.1262207 46.14257812 14.1262207 14.12622071 46.14257813z m164.79327393-76.27532959l92.28515624-28.25079346-92.28515625-28.25079346-28.25079345-92.28515625-28.25079346 92.28515625-92.28515625 28.25079346 92.28515625 28.25079346 28.25079346 92.28515625z m437.8831787-225.06372071l46.14257813-14.12457275-46.14257813-14.1262207-14.1262207-46.14257813-14.1262207 46.14257813-46.14257813 14.1262207 46.14257813 14.1262207 14.1262207 46.14257813zM555.78930664 738.39908855l46.14257813-14.12622071-46.14257813-14.1262207-14.1262207-46.14257813-14.12622071 46.14257813-46.14257812 14.1262207 46.14257812 14.1262207L541.66308594 784.54166667z"  horiz-adv-x="1024" />

    
    <glyph glyph-name="leidatu1" unicode="&#59575;" d="M512 780.37143703l444.06708148-301.95105185-169.54405926-501.22903703H237.35561482L67.81155555 477.81357037l444.18844445 302.55786666m0 55.82696297l-497.34542222-341.02992592 190.0544-563.24551111h614.82477037L1009.34542222 495.65392592 512 836.1984z m0-218.93878518l271.85303703-191.26802964-103.76533333-313.2378074H343.79093333l-103.76533333 312.87371852L512 617.25961482m0 55.82696296L186.74725925 442.9824l124.27567408-375.37564445h401.95413334l124.15431111 375.73973334L512 673.08657778z m0 53.3997037L285.9008 364.94601481999996l452.1984-361.7829926-226.0992 723.32325926z"  horiz-adv-x="1024" />

    
    <glyph glyph-name="biaoge1" unicode="&#59576;" d="M888.71063666 597.59881443h-213.59881444v-143.69374776h213.59881444V597.59881443z m-485.45185109-143.69374776h213.59881443V597.59881443h-213.59881443v-143.69374776z m-54.37060779 0V597.59881443H135.28936334v-132.04290332c0-3.88361443 7.76723001-11.65084445 15.53445888-11.65084444 66.02145223-3.88361443 132.04290333 0 198.06435556 0m54.37060779-198.06435556h213.59881443v143.69374777h-213.59881443v-143.69374777z m267.96942222 0h205.83158442c3.88361443 0 11.65084445 7.76723001 11.65084445 11.65084444v135.9265189h-217.48242887v-147.57736334m-535.93884445 3.88361444h213.59881444v143.6937489H135.28936334v-143.6937489z m539.82245888-198.06435556h213.59881444v143.69374891h-213.59881444v-143.69374891z m-54.37060779 143.69374891h-213.59881443v-147.57736335h213.59881443v147.57736335z m-271.85303665 0H135.28936334v-147.57736335h213.59881444v147.57736335zM512 760.71063666h372.82702222c42.71976334 0 58.25422222-15.53445888 58.25422223-58.25422223v-640.79644444c0-42.71976334-15.53445888-58.25422222-58.25422223-58.25422222H131.40574777c-38.83614777 0-54.37060779 15.53445888-54.37060665 54.37060778V706.34003001c0 38.83614777 15.53445888 54.37060779 54.37060665 54.37060665H512"  horiz-adv-x="1024" />

    
    <glyph glyph-name="downrank" unicode="&#59577;" d="M499.385 503.925zM283.116 29.689l215.929 287.825h-140.769v420.796h-150.299v-420.799h-140.772l215.91-287.822zM572.456 737.908h384.338v-86.369h-384.338v86.369zM572.456 496.079h306.607v86.366h-306.607v-86.366zM572.456 340.619h228.876v86.366h-228.876v-86.366zM572.456 185.156h151.146v86.366h-151.146v-86.366zM572.456 29.689h73.411v86.37h-73.411v-86.37z"  horiz-adv-x="1024" />

    
    <glyph glyph-name="svg-funnel" unicode="&#59578;" d="M220.987 263.38199999999995h582.726l89.639 198.67H129.436zM326.066 0.36099999999999h372.577l51.844 154.375H272.302zM63.754 768.01l33.355-195.299H927.55l31.484 195.299z"  horiz-adv-x="1024" />

    
    <glyph glyph-name="yangshi" unicode="&#59579;" d="M488.075 743.152c93.575-0.003 175.286-27.378 238.428-79.522l-13.292-31.306c-26.739-57.475-89.588-193.166-95.684-211.772-27.706-84.616 4.025-168.403 72.191-190.738a106.97 106.97 0 0 1 33.459-5.337c36.295 0 71.986 17.816 99.705 49.344-29.195-57.141-79.058-86.041-148.745-86.041-9.683 0-18.584 0.588-26.323 1.412a102.96 102.96 0 0 1-10.927 0.578c-38.97 0-75.862-20.669-93.989-52.662-68.212-120.391-125.709-171.759-192.258-171.759-51.359 0-112.622 31.191-182.095 92.716C64.642 150.023 26.513 297.948 69.034 444.108c45.628 156.847 169.733 265.95 331.981 291.85 29.901 4.775 59.191 7.194 87.06 7.194m0.002 51.2c-30.075 0-61.778-2.509-95.134-7.834C1.241 723.986-119.622 244.739 134.609 19.723c85.352-75.584 156.172-105.575 216.03-105.575 106.931 0 178.947 95.603 236.805 197.722 9.309 16.431 30.198 26.7 49.442 26.7 1.848 0 3.68-0.094 5.486-0.287a300.198 300.198 0 0 1 31.764-1.703c70.289 0 174.77 25.531 214.664 166.488 13.006 46.025 16.008 96.65 9.105 147.378 0 0-96.952-127.466-106.956-134.769-18.513-24.791-43.498-40-67.772-40-5.9 0-11.758 0.9-17.472 2.778-40.32 13.209-58.03 69.638-39.52 126.166 5.803 17.709 93.448 206.106 93.448 206.106l28.114 66.134c-68.834 69.894-168.716 117.487-299.67 117.491zM232.46 548.896c44.923 0 81.242-36.419 81.242-81.242 0-44.923-36.419-81.242-81.242-81.242s-81.242 36.419-81.242 81.242c0 44.923 36.419 81.242 81.242 81.242z m-46.824-371.793c-44.823 0-81.242 36.419-81.242 81.242 0 44.823 36.319 81.242 81.242 81.242s81.242-36.419 81.242-81.242c0-44.923-36.419-81.242-81.242-81.242z m159.382-162.584c-44.823 0-81.242 36.319-81.242 81.242s36.419 81.242 81.242 81.242c44.923 0 81.242-36.419 81.242-81.242s-36.319-81.242-81.242-81.242z m65.634 512.566c-44.823 0-81.242 36.319-81.242 81.242 0 44.823 36.419 81.242 81.242 81.242s81.242-36.419 81.242-81.242c0-44.924-36.419-81.242-81.242-81.242zM940.426 827.54c-52.627-3.402-96.05-59.031-98.051-61.432-35.819-42.622-30.216-106.255 12.506-142.074 42.622-35.818 106.255-30.216 142.074 12.406 13.007 15.408 20.411 33.718 22.712 52.327 19.41 91.647-20.411 153.579-20.411 153.579s-6.203-11.404-58.83-14.806z m-232.32-513.166c19.81-11.506 52.727 1.901 73.538 30.016l96.95 130.968c-45.123 10.405-85.644 38.42-111.758 60.231-2.401 2.001-4.702 4.002-6.904 5.903L696.9 393.415c-13.507-32.016-8.604-67.535 11.206-79.041zM845.177 612.629c-16.008 13.407-27.414 30.216-34.218 48.525l-28.915-68.035c25.613-25.413 81.642-69.736 132.769-69.036l52.927 71.437c-39.52-17.409-87.245-12.507-122.563 17.109z"  horiz-adv-x="1025" />

    
    <glyph glyph-name="shuaxin" unicode="&#59580;" d="M798.92546458 112.81019533999995l74.6021034-74.51736045-230.72699088-42.31501393 42.37150975 230.47276202 73.8111689-73.75467385c124.74172262 132.82055754 122.87737605 341.88158335-6.66645104 471.25592452a338.68959583 338.68959583 0 0 1-304.59465484 92.6523662L437.07277681 772.05438126a395.04370339 395.04370339 0 0 0 355.2992276-108.07559581c151.49226894-151.40752599 153.38486266-396.23010555 6.55346017-551.16859011zM240.86444171 586.1846952999999C141.40438647 453.44888071 151.43231016 264.27421637 271.82389102 143.96737847999998a337.05123098 337.05123098 0 0 1 279.0022643-96.63528901l6.41222139-56.09987792c-120.92828728-14.12383658-239.5402645 26.94828015-325.41318958 112.7647094C89.31567772 246.33694446000004 79.17476316 471.3296576 200.49851808 626.4941238700001L123.97557228 702.98882178l230.67049585 42.28676601-42.31501394-230.44451411-71.46661248 71.35362163z m0 0"  horiz-adv-x="1024" />

    
    <glyph glyph-name="shuanglie" unicode="&#59581;" d="M197.62688 471.79776c-12.38016 0-7.11168 5.26848-7.11168-7.11168v-165.504c0-12.36992-5.26848-7.1168 7.11168-7.1168h267.91936c12.36992 0 7.10144-5.25312 7.10144 7.1168V464.68608c0 12.38016 5.26848 7.11168-7.10144 7.11168H197.62688zM550.912 471.79776c-12.38016 0-7.1168 5.26848-7.1168-7.11168v-165.504c0-12.36992-5.26336-7.1168 7.1168-7.1168h267.91936c12.3648 0 7.10144-5.25312 7.10144 7.1168V464.68608c0 12.38016 5.26336 7.11168-7.10144 7.11168H550.912zM889.03168 596.28032H128.05632c-47.22688 0-70.16448-22.93248-70.16448-70.15936v-288.37888c0-47.25248 22.93248-70.14912 70.16448-70.14912h760.97024c47.232 0 70.144 22.92736 70.144 70.14912V526.12096c0.0256 47.22688-22.912 70.15936-70.13888 70.15936z m10.4704-341.6064c0-25.40032-5.22752-30.62784-30.61248-30.62784H148.21888c-25.3952 0-30.62784 5.22752-30.62784 30.62784V509.17888c0 25.40032 5.23264 30.62784 30.62784 30.62784h720.64c25.40032 0 30.62784-5.22752 30.62784-30.62784v-254.50496h0.01536z"  horiz-adv-x="1024" />

    
    <glyph glyph-name="copy" unicode="&#59582;" d="M761.99999961 100.66666698999995v66.66666592h72.22222266a22.22222256 22.22222256 0 0 1 22.22222255 22.22222256V745.11111152a22.22222256 22.22222256 0 0 1-22.22222255 22.22222168H345.33333301a22.22222256 22.22222256 0 0 1-22.22222168-22.22222168v-77.77777852H256.44444453V767.3333332c0 36.81666651 29.85000029 66.6666668 66.6666668 66.6666668h533.33333349c36.81666651 0 66.6666668-29.85000029 66.66666593-66.6666668v-600.00000029c0-36.81666651-29.85000029-66.6666668-66.66666593-66.66666591h-94.44444521zM167.55555518 667.3333330099999h533.33333349c36.81666651 0 66.6666668-29.85000029 66.6666668-66.66666592v-600.00000029c0-36.81666651-29.85000029-66.6666668-66.6666668-66.6666668H167.55555518c-36.81666651 0-66.6666668 29.85000029-66.66666592 66.6666668V600.6666670899999c0 36.81666651 29.85000029 66.6666668 66.66666592 66.66666591z m22.22222255-66.66666592a22.22222256 22.22222256 0 0 1-22.22222255-22.22222256v-555.55555606a22.22222256 22.22222256 0 0 1 22.22222255-22.22222167h488.88888926a22.22222256 22.22222256 0 0 1 22.22222168 22.22222167V578.44444453a22.22222256 22.22222256 0 0 1-22.22222168 22.22222256H189.77777773zM267.55555537 434.0000001l333.3333331 0 1e-8-66.6666668-333.33333311 0 0 66.6666668ZM267.55555537 233.99999971l333.3333331 0 1e-8-66.6666668-333.33333311 0 0 66.6666668Z"  horiz-adv-x="1024" />

    
    <glyph glyph-name="zhibiaotu-heise" unicode="&#59583;" d="M33.44 801.86666667h841.44V621.86666667H33.44zM33.44 523.94666667h600.96V391.46666667H33.44zM86.24 217.70666667h-24c-18.24 0.96-28.32 10.56-29.28 29.28 0.96 17.28 10.56 26.4 29.28 27.36h58.56c17.28-0.96 26.4-11.04 27.36-29.28v-236.64c-0.96-19.68-11.52-29.28-30.72-29.28-19.68 0-29.76 9.6-30.72 29.28v209.28zM222.56-59.73333333000005c-5.28-7.68-12.96-12-22.56-12.96-16.32 0.96-24.96 10.08-25.92 27.36 0 2.4 0.48 5.76 1.44 11.52 0.96 2.4 1.44 3.84 1.44 4.8l34.08 58.56c5.28 8.64 13.44 13.44 24.48 14.4 16.32-2.4 25.44-11.52 27.36-27.36 0-3.36-0.96-7.2-3.36-11.52-0.96-2.4-1.44-3.84-1.44-4.8L222.56-59.73333333000005zM472.64 34.34666666999999c21.6 0 32.64-9.12 32.64-27.36 0-17.28-9.6-26.4-29.28-27.36H336.32c-20.64 0-30.72 9.12-30.72 27.36 0 6.72 2.88 13.44 8.16 21.12 5.28 6.72 13.92 16.32 25.92 29.28 35.52 38.88 61.44 70.08 77.76 94.08 9.6 13.92 14.4 26.88 14.4 38.88-2.4 19.68-12 30.24-29.28 32.64-17.28 0-29.76-12-37.44-35.52-6.72-20.64-15.84-30.72-27.36-30.72-19.68 0.96-29.76 10.56-30.72 29.28 6.72 56.16 38.88 87.36 97.44 94.08 58.56-3.36 89.28-31.68 92.64-85.92 0-29.28-24.48-72-72.96-128.16-12-13.92-20.64-24.48-25.92-30.72h74.4zM723.68 202.82666667c0-26.88-11.52-48-34.08-63.36 32.64-16.32 48.96-40.32 50.4-72.96-5.28-55.2-39.84-84.96-103.68-89.28-58.56 3.36-91.68 28.32-100.8 74.4 1.92 16.32 12.96 25.44 32.64 27.36 7.68 0 15.84-6.72 24.48-19.68 12-19.68 26.4-29.28 43.68-29.28 24 1.92 36.96 15.36 38.88 38.88-3.36 25.92-15.84 37.92-37.44 35.52-21.6 4.32-32.64 13.92-32.64 29.28 0 13.92 9.6 24 29.28 29.28 19.68 4.32 29.28 14.4 29.28 30.72-0.96 17.28-11.04 26.4-29.28 27.36-15.36 0-27.36-7.68-37.44-22.56-8.64-12-17.28-17.76-25.92-17.76-16.32 0.96-24.96 11.52-25.92 30.72 7.68 38.88 37.44 60.96 89.28 66.72 53.28-2.4 83.04-27.84 89.28-75.36zM795.2 43.94666667000001c-17.28 0.96-26.88 9.12-29.28 24.48 0 6.72 1.92 12.96 6.72 19.68l92.64 167.04c8.64 17.28 22.56 25.44 42.24 24.48 31.2-2.4 47.52-19.68 48.48-51.84v-128.16h6.72c18.24-0.96 28.32-10.08 29.28-27.36-0.96-17.28-11.04-26.4-29.28-27.36h-6.72v-35.52c0-19.68-10.08-29.28-30.72-29.28-20.64-0.96-30.24 8.64-29.28 29.28v35.52h-100.8z m100.8 170.4h-1.44l-55.2-115.2H896v115.2z"  horiz-adv-x="1024" />

    
    <glyph glyph-name="jia2" unicode="&#59584;" d="M679.556 356.13c15.472 0 27.979 12.507 27.979 27.979 0 15.444-12.507 27.979-27.979 27.979H343.805c-15.444 0-27.979-12.535-27.979-27.979 0-15.472 12.535-27.979 27.979-27.979h335.751zM847.431 831.777H175.929c-61.806 0-111.917-50.111-111.917-111.917v-671.502c0-61.806 50.111-111.917 111.917-111.917h671.502c61.806 0 111.917 50.111 111.917 111.917V719.86c-0.001 61.806-50.112 111.917-111.917 111.917z m55.958-783.418c0-30.889-25.069-55.958-55.958-55.958H175.929c-30.889 0-55.958 25.069-55.958 55.958V719.86c0 30.889 25.069 55.958 55.958 55.958h671.502c30.889 0 55.958-25.069 55.958-55.958v-671.501zM485.021 216.933c0-15.472 12.507-27.979 27.979-27.979 15.444 0 27.979 12.507 27.979 27.979V552.684c0 15.444-12.535 27.979-27.979 27.979-15.472 0-27.979-12.535-27.979-27.979v-335.751z"  horiz-adv-x="1024" />

    
    <glyph glyph-name="dayin" unicode="&#59585;" d="M640.57142832 416.14285752A96.42857168 96.42857168 0 1 1 737 512.57142832 96.42857168 96.42857168 0 0 1 640.57142832 416.14285752z m128.5714292 0a32.14285752 32.14285752 0 1 0-32.14285752 32.14285664 32.14285752 32.14285752 0 0 0 32.14285752-32.14285664zM904.78571416 641.14285752H833.42857168V769.71428584a64.28571416 64.28571416 0 0 1-64.28571416 64.28571416H254.85714248a64.28571416 64.28571416 0 0 1-64.28571416-64.28571416v-128.57142832H119.21428584a57.21428584 57.21428584 0 0 1-57.21428584-57.21428584v-464.78571416a57.21428584 57.21428584 0 0 1 57.21428584-56.5714292H254.85714248v-79.71428584a48.85714248 48.85714248 0 0 1 48.85714336-48.85714248h417.21428583a48.85714248 48.85714248 0 0 1 48.85714249 48.85714248V62.571428319999995h135.64285751a57.21428584 57.21428584 0 0 1 57.21428585 57.21428584V583.92857168a57.21428584 57.21428584 0 0 1-57.85714336 57.21428584zM254.85714248 769.71428584h514.28571504v-128.57142832H254.85714248z m450-642.85714336v-128.57142832H319.14285752v192.85714336h385.71428496z m192.85714336 0h-128.57142832V206.57142832a48.85714248 48.85714248 0 0 1-48.85714336 48.85714336H303.71428584a48.85714248 48.85714248 0 0 1-48.85714336-48.85714336V126.85714248H126.28571416V576.85714248h771.42857168z"  horiz-adv-x="1024" />

    
    <glyph glyph-name="zhexiantu2" unicode="&#59586;" d="M90.112-17.408h26.402816l835.227648-0.004096c6.144 0 12.394496 0.700416 18.403328-0.212992 16.4864-2.506752 25.27232-12.558336 25.038848-29.261824-0.22528-15.880192-9.35936-24.940544-24.592384-27.631616-5.296128-0.937984-10.891264-0.233472-16.347136-0.233472-293.425152-0.004096-586.842112-0.008192-880.267264 0-33.54624 0-41.201664 7.417856-41.20576 40.001536-0.008192 279.093248-0.016384 558.186496 0.016384 837.279744 0.004096 24.178688 9.68704 36.384768 28.758016 36.032512 16.826368-0.3072 26.345472-9.428992 28.389376-25.935872 0.749568-6.053888 0.176128-12.271616 0.176128-18.41152V-17.408zM686.968832 305.455104c-56.64768 0.978944-100.130816 23.109632-140.92288 51.396608-55.640064 38.58432-112.98816 39.419904-171.614208 8.843264-40.16128-20.942848-72.818688-51.859456-96.636928-89.534464-29.372416-46.460928-54.08768-95.862784-80.740352-144.039936-1.6384-2.961408-2.49856-6.336512-3.907584-9.437184-7.9872-17.620992-22.114304-24.961024-37.187584-19.37408-15.568896 5.767168-23.191552 21.01248-16.32256 38.6048 37.134336 95.141888 85.762048 183.0912 167.452672 247.78752 71.294976 56.46336 150.269952 71.14752 235.9296 35.49184 10.555392-4.395008 19.836928-11.759616 29.966336-17.272832 23.8592-12.976128 46.956544-27.99616 72.044544-37.924864 37.965824-15.020032 76.034048-9.363456 104.271872 20.119552 27.521024 28.73344 54.710272 60.04736 72.802304 95.010816 28.987392 56.0128 50.388992 115.953664 74.866688 174.2848 2.629632 6.258688 4.100096 13.0048 6.647808 19.304448 7.08608 17.518592 21.868544 25.53856 37.154816 19.398656 16.77312-6.73792 22.274048-20.647936 16.990208-36.790272-30.998528-94.76096-64.974848-188.338176-126.226432-268.783616-30.26944-39.755776-66.31424-72.650752-117.424128-83.505152-10.592256-2.2528-21.536768-2.8672-27.144192-3.579904z"  horiz-adv-x="1024" />

    
    <glyph glyph-name="tongjitu" unicode="&#59587;" d="M900.7-12.5H271c-105.9 0-191.7 85.8-191.7 191.7V727.8c0 26.6 21.5 48.1 48.1 48.1s48.1-21.5 48.1-48.1v-548.6c0-52.8 42.8-95.6 95.6-95.6h629.7c26.6 0 48.1-21.5 48.1-48.1-0.1-26.5-21.7-48-48.2-48zM386.9 526.2H285.5c-20.9 0-37.9-17-37.9-37.9V213c0-20.9 17-37.9 37.9-37.9h101.4c20.9 0 37.9 17 37.9 37.9V488.2c0 21-16.9 38-37.9 38zM631 778.1h-77.8c-27.5 0-49.7-22.3-49.7-49.7v-503.6c0-27.4 22.3-49.7 49.7-49.7H631c27.4 0 49.7 22.3 49.7 49.7V728.4c0 27.5-22.2 49.7-49.7 49.7zM894.1 617.4H802c-23.5 0-42.6-19.1-42.6-42.6v-357.1c0-23.5 19.1-42.6 42.6-42.6h92.1c23.5 0 42.6 19.1 42.6 42.6V574.8c-0.1 23.6-19.1 42.6-42.6 42.6z"  horiz-adv-x="1024" />

    
    <glyph glyph-name="zuoduiqi" unicode="&#59588;" d="M139.14285752 724.71428584h488.57142832c25.71428584 0 45 19.28571416 45 45 0 25.71428584-19.28571416 45-45 45H139.14285752C113.42857168 814.71428584 94.14285752 795.42857168 94.14285752 769.71428584c0-25.71428584 19.28571416-45 45-45zM139.14285752 467.57142832h745.71428496c25.71428584 0 45 19.28571416 45 45 0 25.71428584-19.28571416 45-45 45H139.14285752c-25.71428584 0-45-19.28571416-45-45 0-25.71428584 19.28571416-45 45-45zM139.14285752 210.42857168h488.57142832c25.71428584 0 45 19.28571416 45 45 0 25.71428584-19.28571416 45-45 45H139.14285752c-25.71428584 0-45-19.28571416-45-45 0-25.71428584 19.28571416-45 45-45zM884.85714248 43.28571416H139.14285752c-25.71428584 0-45-19.28571416-45-45 0-25.71428584 19.28571416-45 45-45h745.71428496c25.71428584 0 45 19.28571416 45 45 0 25.71428584-19.28571416 45-45 45z"  horiz-adv-x="1024" />

    
    <glyph glyph-name="jiaochabiaotubiao" unicode="&#59589;" d="M861.49999971 834H162.50000029C107 834 62 789 62 733.49999971v-698.99999942C62-21 107-66 162.50000029-66h698.99999942c55.50000029 0 100.50000029 45 100.50000029 100.50000029V733.49999971C962 789 917 834 861.49999971 834zM134.37500029 472.72499971h197.24999942v-207.74999971H134.37500029v207.74999971z m269.55 0h485.69999942v-207.74999971H404v207.74999971z m485.69999942 260.775v-188.39999971H404V761.62499971h457.57500029c15.525 0 28.125-12.6 28.125-28.125zM162.50000029 761.62499971h169.12499942v-216.52499971H134.37500029V733.49999971c0 15.525 12.6 28.125 28.125 28.125zM134.37500029 34.50000029V192.67500028999996h197.24999942v-186.3H162.50000029a28.125 28.125 0 0 0-28.125 28.125z m727.12499942-28.125h-457.49999971V192.67500028999996h485.62499971v-158.25000058a28.125 28.125 0 0 0-28.125-28.04999942z"  horiz-adv-x="1024" />

    
    <glyph glyph-name="moban" unicode="&#59590;" d="M900.73333344-48H554.33333375c-23.93333344 0-43.26666656 20.4-43.2666675 45.46666687V406.73333344c0 25.13333344 19.39999969 45.46666687 43.2666675 45.46666687h346.39999969c23.93333344 0 43.26666656-20.4 43.26666656-45.46666687v-409.26666657c0-25.06666687-19.39999969-45.46666687-43.26666656-45.46666687z m0 591.13333313H554.33333375c-23.93333344 0-43.26666656 20.4-43.2666675 45.46666687V770.53333312c0 25.13333344 19.39999969 45.46666687 43.2666675 45.46666688h346.39999969c23.93333344 0 43.26666656-20.4 43.26666656-45.46666688V588.6666665600001c0-25.13333344-19.39999969-45.53333344-43.26666656-45.53333343zM381.13333344-48H121.33333344c-23.93333344 0-43.26666656 20.4-43.26666657 45.46666687V179.33333344000005c0 25.13333344 19.39999969 45.46666687 43.26666657 45.46666687h259.8c23.93333344 0 43.26666656-20.4 43.26666656-45.46666687v-181.86666657c0-25.06666687-19.39999969-45.46666687-43.26666656-45.46666687z m0 363.79999969H121.33333344c-23.93333344 0-43.26666656 20.4-43.26666657 45.46666687V770.53333312C78.00000031 795.6 97.4 816 121.33333344 816h259.8c23.93333344 0 43.26666656-20.4 43.26666656-45.46666687v-409.26666657c0-25.13333344-19.39999969-45.46666687-43.26666656-45.46666687z"  horiz-adv-x="1024" />

    
    <glyph glyph-name="yibiaopan1" unicode="&#59591;" d="M444.536 277.556l74.316-65.84 61.025 65.84-64.994 427.641h-1.248zM512.207 832.132c-247.516 0-448.167-200.651-448.167-448.167 0-116.262 44.273-222.182 116.876-301.827l63.794 40.923c-61.26 62.797-100.586 147.086-105.615 240.49h57.454v36.585h-57.658c8.21 192.797 162.505 347.77 355.024 357.05v-51.99H530.5v51.99c192.518-9.281 346.813-164.253 355.023-357.05h-57.819v-36.585h57.615c-4.974-92.381-43.497-175.845-103.61-238.419l61.789-42.994c72.603 79.645 116.876 185.565 116.876 301.827-0.001 247.516-200.652 448.167-448.167 448.167z"  horiz-adv-x="1024" />

    
    <glyph glyph-name="fangda1" unicode="&#59592;" d="M811.99999971 834h-599.99999942C127.99999971 834 62 768.00000029 62 683.99999971v-599.99999942C62-2.900000026784255e-7 127.99999971-66 212.00000029-66h599.99999942c83.99999971 0 150.00000029 65.99999971 150.00000029 150.00000029v599.99999942C962 768.00000029 896.00000029 834 811.99999971 834zM901.99999971 84.00000029c0-47.99999971-42.00000029-90-90-90h-599.99999942c-47.99999971 0-90 42.00000029-90 90v599.99999942C122.00000029 732.00000029 163.99999971 773.99999971 212.00000029 773.99999971h599.99999942c47.99999971 0 90-42.00000029 90-90v-599.99999942zM415.99999971 330L242 156.00000029V264.00000029c0 18-11.99999971 29.99999971-29.99999971 29.99999971s-29.99999971-11.99999971-30.00000058-29.99999971v-180c0-18 11.99999971-29.99999971 30.00000058-30.00000058h180c18 0 29.99999971 11.99999971 29.99999971 30.00000058s-11.99999971 29.99999971-29.99999971 29.99999971H284.00000029l173.99999971 173.99999971c11.99999971 11.99999971 11.99999971 29.99999971 0 42.00000029-11.99999971 11.99999971-29.99999971 11.99999971-42.00000029 0zM811.99999971 714.00000029h-180c-18 0-29.99999971-11.99999971-29.99999971-30.00000058s11.99999971-29.99999971 29.99999971-29.99999971h108L566 480.00000029c-11.99999971-11.99999971-11.99999971-29.99999971 0-42.00000029 11.99999971-11.99999971 29.99999971-11.99999971 42.00000029 0L782 611.99999971v-108c0-18 11.99999971-29.99999971 29.99999971-29.99999971s29.99999971 11.99999971 30.00000058 29.99999971v180c0 18-11.99999971 29.99999971-30.00000058 30.00000058z"  horiz-adv-x="1024" />

    
    <glyph glyph-name="wenben" unicode="&#59593;" d="M66.36469414 718.55383154C66.36469414 779.87778896 116.12221104 829.63530586 177.44616846 829.63530586h669.10766308c61.32395742 0 111.08147432-49.7575169 111.08147432-111.08147432v-669.10766308c0-61.32395742-49.7575169-111.08147432-111.08147432-111.08147432H177.44616846C116.12221104-61.63530586000002 66.36469414-11.877788959999975 66.36469414 49.44616845999997V718.55383154z m55.64985469-56.30455898v-556.28031006c0-61.76042666 49.97575195-111.73617862 111.73617861-111.73617862h556.28031006c29.67992227 0 58.05043682 11.78467471 79.00096992 32.7352087s32.73520869 49.32104766 32.7352087 79.00096992V662.24927256c0 29.67992227-11.78467471 58.05043682-32.7352087 79.00096992s-49.32104766 32.73520869-79.00096992 32.73520869H233.75072744c-29.67992227 0-58.05043682-11.78467471-79.00096992-32.73520869s-32.73520869-49.32104766-32.73520869-79.00096992z m354.41319111-403.07953447V490.93501435H387.16973808c0-21.38700323-14.18525683-35.57226006-35.57226006-35.57226005-21.38700323 0-35.57226006 14.18525683-35.57226005 35.57226005v35.57226006c0 21.38700323 14.18525683 35.57226006 35.57226005 35.57226007 2.18234708 0 4.36469414-0.21823506 6.5470421-0.43646925 1.74587783 0.21823506 3.49175566 0.43646924 5.45586767 0.43646925h297.01745859c1.74587783 0 3.70999072-0.21823506 5.45586856-0.43646925 2.18234708 0.21823506 4.36469414 0.43646924 6.54704121 0.43646925 21.38700323 0 35.57226006-14.18525683 35.57226007-35.57226007v-35.57226006c0-21.38700323-14.18525683-35.57226006-35.57226007-35.57226005-21.38700323 0-35.57226006 14.18525683-35.57225917 35.57226005h-89.03976768v-231.76527627c21.38700323 0 35.57226006-14.18525683 35.57226005-35.57226006 0-21.38700323-14.18525683-35.57226006-35.57226005-35.57226005H476.645975c-21.38700323 0-35.57226006 14.18525683-35.57226006 35.57226005-0.43646924 21.38700323 13.96702266 35.57226006 35.354025 35.57226007z m0 0M846.55383154-66H177.44616846C113.72162979-65.78176494000002 62-14.060136039999975 62 49.44616845999997V718.55383154C62 782.27837021 113.72162979 834 177.44616846 834h669.10766308c63.72453955 0 115.44616846-51.72162979 115.44616846-115.44616846v-669.10766308c0-63.5063045-51.93986396-115.22793428-115.44616846-115.44616846zM177.44616846 825.27061084A106.71678018 106.71678018 0 0 1 70.72938916 718.55383154v-669.10766308c0-58.70514023 47.79340488-106.71678018 106.7167793-106.7167793h669.10766308c58.70514023 0 106.71678018 47.79340488 106.7167793 106.7167793V718.55383154c0 58.92337529-47.79340488 106.71678018-106.7167793 106.7167793H177.44616846z m612.8031041-835.40252198H233.75072744a116.31910781 116.31910781 0 0 0-116.10087275 116.10087364V662.24927256c0 30.98933086 12.00290977 60.23278388 34.0446164 82.05625635 21.82347247 21.82347247 51.06692549 34.04461729 82.05625635 34.0446164h556.28031006c30.98933086 0 60.01454883-12.00290977 82.05625635-34.0446164 21.82347247-22.04170752 34.04461729-51.06692549 34.04461728-82.05625635v-556.28031006c0-30.98933086-12.00290977-60.23278388-34.04461728-82.05625635-21.82347247-22.04170752-50.84869043-34.04461729-81.83802129-34.04461728zM233.75072744 769.62075615c-28.58874873 0-55.64985469-11.12997129-75.9456835-31.42580009-20.29582969-20.29582969-31.4258001-47.35693477-31.42580009-75.9456835v-556.28031006a107.58971865 107.58971865 0 0 1 107.37148359-107.37148447h556.28031006c28.58874873 0 55.64985469 11.12997129 75.94568437 31.4258001 20.29582969 20.29582969 31.4258001 47.35693477 31.4258001 75.94568437V662.24927256c0 28.58874873-11.12997129 55.64985469-31.4258001 75.9456835a106.43307451 106.43307451 0 0 1-75.94568437 31.42580009H233.75072744zM547.57226006 183.66052383h-71.3627543c-24.00581953 0-39.9369542 16.14936972-39.93695508 39.9369542 0 22.47817675 14.18525683 37.97284219 35.57226006 39.71872002V486.57032021h-80.52861269c-1.74587783-21.38700323-17.45877832-35.57226006-39.71872002-35.57226005-24.00581953 0-39.9369542 16.14936972-39.9369542 39.93695419v35.57226007c0 24.00581953 16.14936972 39.9369542 39.9369542 39.9369542 2.18234708-0.21823506 4.36469414-0.21823506 6.32880703-0.43646925 1.74587783 0.21823506 3.9282249 0.43646924 5.45586856 0.43646925h297.01745859c1.74587783 0 3.70999072-0.21823506 5.45586767-0.43646925 2.18234708 0.21823506 4.36469414 0.21823506 6.32880703 0.43646925 24.00581953 0 39.9369542-16.14936972 39.93695421-39.9369542v-35.57226007c0-24.00581953-16.14936972-39.9369542-39.93695421-39.93695419-22.47817675 0-37.97284219 14.18525683-39.71871914 35.57226005h-80.52861357v-223.25412216c21.38700323-1.74587783 35.57226006-17.45877832 35.57226005-39.71872003 0.21823506-24.00581953-15.93113467-39.9369542-39.93695419-39.93695419z m-71.14452012 71.14452011c-18.98642109 0-31.20756503-12.22114482-31.20756504-31.20756591 0-18.98642109 12.22114482-31.20756503 31.20756504-31.20756504h71.3627543c18.98642109 0 31.20756503 12.22114482 31.20756592 31.20756504 0 18.98642109-12.22114482 31.20756503-31.20756592 31.20756591h-4.36469414V495.29970938h97.76915595v-4.36469503c0-18.98642109 12.22114482-31.20756503 31.20756593-31.20756503 18.98642109 0 31.20756503 12.22114482 31.20756503 31.20756503v35.57226006c0 18.98642109-12.22114482 31.20756503-31.20756503 31.20756592-1.96411289 0-3.9282249-0.21823506-5.8923378-0.43647012h-1.3094086c-1.52764278 0.21823506-3.05528643 0.43646924-4.80116337 0.43647012H363.38215362c-1.52764278 0-3.05528643-0.21823506-4.80116427-0.43647012h-1.30940859c-1.96411289 0.21823506-3.70999072 0.21823506-5.89233691 0.43647012-18.98642109 0-31.20756503-12.22114482-31.20756592-31.20756592v-35.57226006c0-18.98642109 12.22114482-31.20756503 31.20756592-31.20756503s31.20756503 12.22114482 31.20756503 31.20756503v4.36469503h97.76915596v-240.49466543h-3.9282249z"  horiz-adv-x="1024" />

    
    <glyph glyph-name="mingxibiao" unicode="&#59594;" d="M880 784H144c-17.7 0-32-14.3-32-32v-736c0-17.7 14.3-32 32-32h736c17.7 0 32 14.3 32 32V752c0 17.7-14.3 32-32 32z m-40-728H184V712h656v-656zM493.6 496h220.8c5.28 0 9.6 3.6 9.6 8v48c0 4.4-4.32 8-9.6 8H493.6c-5.28 0-9.6-3.6-9.6-8v-48c0-4.4 4.32-8 9.6-8z m0-144h220.8c5.28 0 9.6 3.6 9.6 8v48c0 4.4-4.32 8-9.6 8H493.6c-5.28 0-9.6-3.6-9.6-8v-48c0-4.4 4.32-8 9.6-8z m0-144h220.8c5.28 0 9.6 3.6 9.6 8v48c0 4.4-4.32 8-9.6 8H493.6c-5.28 0-9.6-3.6-9.6-8v-48c0-4.4 4.32-8 9.6-8zM320 528c0-22.091 17.909-40 40-40s40 17.909 40 40-17.909 40-40 40-40-17.909-40-40z m0-144c0-22.091 17.909-40 40-40s40 17.909 40 40-17.909 40-40 40-40-17.909-40-40z m0-144c0-22.091 17.909-40 40-40s40 17.909 40 40-17.909 40-40 40-40-17.909-40-40z"  horiz-adv-x="1024" />

    
    <glyph glyph-name="layout" unicode="&#59595;" d="M831.20303681 1.484229379999988H193.09686619c-35.09529159 0-63.65247632 28.55165146-63.65247632 63.64694306v638.12941034c0 35.09529159 28.55718473 63.65247632 63.65247632 63.65247632h638.10727727c35.09529159 0 63.6458364-28.55718473 63.64583641-63.65247632v-638.1349436c0.00553327-35.09086498-28.54501155-63.6414098-63.64694306-63.6414098zM193.09686619 709.09596487a5.83648876 5.83648876 0 0 1-5.82984883-5.82984883v-638.1349436a5.83648876 5.83648876 0 0 1 5.82984883-5.82542221h638.10727727a5.82984884 5.82984884 0 0 1 5.82431558 5.82542221v638.12941034a5.83648876 5.83648876 0 0 1-5.82542223 5.82984883H193.09686619zM165.26564593 558.60552191H865.94087943v-57.82262748h-700.67744681zM377.95220966 550.58781978h57.82262749v-500.41527807h-57.82262749z"  horiz-adv-x="1024" />

    
    <glyph glyph-name="shijianzhou" unicode="&#59596;" d="M269.98283378 318.61934458999997V465.39085748c40.96242725 17.06848711 68.26423941 54.61333333 68.2642394 98.9836326s-27.31152118 81.92485452-68.2642394 95.57576059V837.44115675c0 20.47635911-13.65090608 34.13697422-34.13697423 34.13697422s-34.13697422-13.65090608-34.13697422-34.13697422v-177.49090608c-40.96242725-13.65090608-68.26423941-51.1957523-68.26423941-95.57576059s27.31152118-81.92485452 68.26423941-95.5757606v-146.77151289c-40.96242725-13.65090608-68.26423941-51.1957523-68.26423941-95.57576059s27.31152118-81.92485452 68.26423941-95.57576059v-180.90848711c0-20.47635911 13.65090608-34.13697422 34.13697422-34.13697422s34.13697422 13.65090608 34.13697423 34.13697422V127.46782341000005c40.96242725 13.65090608 68.26423941 51.1957523 68.2642394 95.57576059s-27.30181215 81.91514548-68.2642394 95.57576059z m-34.13697423 279.89211971c20.47635911 0 34.13697422-13.65090608 34.13697423-34.13697422s-13.65090608-34.13697422-34.13697423-34.13697423-34.13697422 13.65090608-34.13697422 34.13697423 13.66061511 34.13697422 34.13697422 34.13697422z m0-409.60485452c-20.47635911 0-34.13697422 13.65090608-34.13697422 34.13697422s13.65090608 34.13697422 34.13697422 34.13697422 34.13697422-13.65090608 34.13697423-34.13697422-13.65090608-34.13697422-34.13697423-34.13697422z m578.19257363-9.70903703H484.88265955c-20.57344948 0-41.14689897-13.65090608-41.14689896-34.13697423s16.45681778-34.13697422 41.14689896-34.13697422H814.04814222c20.57344948 0 41.14689897 13.65090608 41.14689896 34.13697422s-16.45681778 34.13697422-41.156608 34.13697423zM896.35164918 657.06666667h-411.46898963c-20.57344948 0-41.14689897-13.65090608-41.14689896-34.13697422s16.45681778-34.13697422 41.14689896-34.13697423h411.46898963c20.56374045 0 41.13718992 13.65090608 41.13718993 34.13697423S921.03202133 657.06666667 896.35164918 657.06666667z m-82.313216-204.80242726c20.57344948 0 41.14689897 13.65090608 41.14689897 34.13697422s-16.44710875 34.13697422-41.14689897 34.13697422H484.88265955c-20.57344948 0-41.14689897-13.65090608-41.14689896-34.13697422s16.45681778-34.13697422 41.14689896-34.13697422h329.15577363z m82.313216-136.52847882h-411.46898963c-20.57344948 0-41.14689897-13.65090608-41.14689896-34.13697422s16.45681778-34.13697422 41.14689896-34.13697422h411.46898963c20.56374045 0 41.13718992 13.65090608 41.13718993 34.13697422s-16.45681778 34.13697422-41.13718993 34.13697422z"  horiz-adv-x="1024" />

    
    <glyph glyph-name="shuipingfenbu" unicode="&#59597;" d="M755.2 742.4H832v-716.8h-76.8zM192 742.4h76.8v-716.8H192zM563.2 678.4H460.8c-49.4 0-89.6-40.2-89.6-89.6v-409.6c0-49.4 40.2-89.6 89.6-89.6h102.4c49.4 0 89.6 40.2 89.6 89.6V588.8c0 49.4-40.2 89.6-89.6 89.6zM576 179.2c0-7.1-5.7-12.8-12.8-12.8H460.8c-7.1 0-12.8 5.7-12.8 12.8V588.8c0 7.1 5.7 12.8 12.8 12.8h102.4c7.1 0 12.8-5.7 12.8-12.8v-409.6z"  horiz-adv-x="1024" />

    
    <glyph glyph-name="kapian" unicode="&#59598;" d="M928 736H96a32 32 0 0 1-32-32v-672a32 32 0 0 1 32-32h832a32 32 0 0 1 32 32V704a32 32 0 0 1-32 32z m-32-672H128V672h768v-608zM230.592 447.904H544a32 32 0 1 1 0 64H230.592a32 32 0 0 1 0-64z m0-192H544a32 32 0 1 1 0 64H230.592a32 32 0 1 1 0-64zM768 192a32 32 0 0 1 32 32V545.984a32 32 0 1 1-64 0V224a32 32 0 0 1 32-32z"  horiz-adv-x="1024" />

    
    <glyph glyph-name="rili1" unicode="&#59599;" d="M283.468 640.68c23.35 0 42.279 18.93 42.279 42.279V795.721c0 23.35-18.93 42.279-42.28 42.279s-42.278-18.929-42.278-42.279V682.96c0-23.268 18.955-42.279 42.279-42.279z m644.226 68.498h-96.645l2.043-26.219c0-54.488-44.172-98.66-98.66-98.66-54.489 0-98.66 44.172-98.66 98.66l2.043 26.219H380.113l1.986-26.219a98.631 98.631 0 1 0-197.263 0l1.986 26.218H90.234c-23.381 0-32.234-8.91-32.234-32.234v-698.592c0-23.324 18.954-42.279 42.279-42.279h817.37c23.35 0 42.279 18.93 42.279 42.279V676.943c0 23.325-8.91 32.234-32.234 32.234z m-64.411-676.46H154.644V483.652h708.638v-450.936zM734.46 640.68c23.35 0 42.279 18.93 42.279 42.279V795.721c0 23.35-18.93 42.279-42.279 42.279-23.35 0-42.279-18.929-42.279-42.279V682.96c0-23.268 18.898-42.279 42.279-42.279zM315.645 290.42a64.468 64.468 0 1 1 0 128.879c-34.845-1.035-62.555-29.58-62.555-64.44s27.71-63.406 62.555-64.44z m193.29 0a64.468 64.468 0 1 1 0 128.879c-34.844-1.035-62.555-29.58-62.555-64.44s27.71-63.406 62.555-64.44z m193.291 0a64.468 64.468 0 1 1 0 128.879c-34.845-1.035-62.555-29.58-62.555-64.44s27.71-63.406 62.555-64.44zM315.702 129.362a64.468 64.468 0 1 1-0.057 128.879c-34.845-1.034-62.555-29.58-62.555-64.44s27.71-63.405 62.555-64.44h0.057z m193.233 0a64.468 64.468 0 1 1 0 128.879c-34.844-1.034-62.555-29.58-62.555-64.44s27.71-63.405 62.555-64.44z m193.291 0a64.468 64.468 0 1 1 0 128.879c-34.845-1.034-62.555-29.58-62.555-64.44s27.71-63.405 62.555-64.44z"  horiz-adv-x="1024" />

    
    <glyph glyph-name="jian" unicode="&#59600;" d="M679.556 356.13c15.472 0 27.979 12.507 27.979 27.979 0 15.444-12.507 27.979-27.979 27.979H343.805c-15.444 0-27.979-12.535-27.979-27.979 0-15.472 12.535-27.979 27.979-27.979h335.751zM847.431 831.777H175.929c-61.806 0-111.917-50.111-111.917-111.917v-671.502c0-61.806 50.111-111.917 111.917-111.917h671.502c61.806 0 111.917 50.111 111.917 111.917V719.86c-0.001 61.806-50.112 111.917-111.917 111.917z m55.958-783.418c0-30.889-25.069-55.958-55.958-55.958H175.929c-30.889 0-55.958 25.069-55.958 55.958V719.86c0 30.889 25.069 55.958 55.958 55.958h671.502c30.889 0 55.958-25.069 55.958-55.958v-671.501z"  horiz-adv-x="1024" />

    
    <glyph glyph-name="mianjitu" unicode="&#59691;" d="M257.536 238.08L403.968 424.96l208.896-107.008 238.592 241.664v-435.2h-593.92v113.664zM896 0H129.024V768h71.68v-696.32H896z"  horiz-adv-x="1024" />

    
    <glyph glyph-name="ic_daohang_shu" unicode="&#59601;" d="M459.265625 753.140625v-158.203125H195.59375V753.140625h263.671875m0 52.734375H195.59375c-26.3671875 0-52.734375-21.09375-52.734375-52.734375v-158.203125c0-31.640625 26.3671875-52.734375 52.734375-52.734375h263.671875c31.640625 0 52.734375 21.09375 52.734375 52.734375V753.140625c0 31.640625-21.09375 52.734375-52.734375 52.734375zM828.40625 436.734375v-105.46875h-158.203125V436.734375h158.203125m0 52.734375h-158.203125c-31.640625 0-52.734375-21.09375-52.734375-52.734375v-105.46875c0-31.640625 21.09375-52.734375 52.734375-52.734375h158.203125c31.640625 0 52.734375 21.09375 52.734375 52.734375V436.734375c0 31.640625-21.09375 52.734375-52.734375 52.734375zM828.40625 120.328125v-105.46875h-158.203125v105.46875h158.203125m0 52.734375h-158.203125c-31.640625 0-52.734375-21.09375-52.734375-52.734375v-105.46875c0-31.640625 21.09375-52.734375 52.734375-52.734375h158.203125c31.640625 0 52.734375 21.09375 52.734375 52.734375v105.46875c0 31.640625-21.09375 52.734375-52.734375 52.734375zM564.734375 67.59375H380.1640625C306.3359375 67.59375 248.328125 125.6015625 248.328125 199.4296875V594.9375h52.734375v-395.5078125c0-42.1875 36.9140625-79.1015625 79.1015625-79.1015625H564.734375v-52.734375zM248.328125 384h316.40625v-52.734375H248.328125z"  horiz-adv-x="1024" />

    
    <glyph glyph-name="chaxun" unicode="&#59602;" d="M897.72362246 833.96985175H126.31658574a64.31658047 64.31658047 0 0 1-64.31658047-64.31658047v-771.33669081a64.31658047 64.31658047 0 0 1 64.31658048-64.31658047h594.63693544a32.15829023 32.15829023 0 0 1 0 64.31658047H126.31658574V769.68341953h771.40703672v-594.59673692a32.15829023 32.15829023 0 0 1 64.31658047 0V769.68341953a64.31658047 64.31658047 0 0 1-64.31658047 64.31658047z m1e-8 1e-8M793.00819004 148.47569707000002a207.58176386 207.58176386 0 0 1 40.42900108 123.0356083c-0.14069268 115.31761875-93.59067393 208.76760088-208.90829356 208.9384418-115.32766816-0.17084092-208.78769971-93.62082217-208.90829267-208.9384418 0.12059385-115.31761875 93.58062451-208.77765029 208.90829267-208.90829267a207.09938935 207.09938935 0 0 1 123.03560918 40.42900019l111.3581294-111.33803057a32.15829023 32.15829023 0 0 1 45.51403008 45.44368419zM479.8969877 271.51130536999995c0 79.71236191 64.91954883 144.63191075 144.63190986 144.63191075s144.63191075-64.91954883 144.63191074-144.63191075-64.91954883-144.63191075-144.63191074-144.63190986-144.63191075 64.91954883-144.63190986 144.63190986z m321.40201201 361.57977598a32.15829023 32.15829023 0 0 1-32.15829024 32.15829023H254.94974667a32.15829023 32.15829023 0 0 1 1e-8-64.31658046h514.21106162a32.15829023 32.15829023 0 0 1 32.15829024 32.15829023zM254.94974667 473.7367043a32.15829023 32.15829023 0 1 1 1e-8-64.31658047h96.41457421a32.15829023 32.15829023 0 1 1 1e-8 64.31658047z m1e-8 0"  horiz-adv-x="1024" />

    
    <glyph glyph-name="zhujian" unicode="&#59603;" d="M552 16h80c22.091 0 40-17.909 40-40s-17.909-40-40-40H472V323.31c-50.539 8.416-99.32 32.875-139.644 73.38-101.808 102.241-101.808 258.62 0 360.862 95.812 96.23 257.498 102.252 359.296 0 101.797-102.242 101.797-258.62 0-360.863-40.326-40.506-89.11-64.966-139.652-73.38V192h80c22.091 0 40-17.909 40-40s-17.909-40-40-40h-80v-96zM388.495 700.817c-69.993-70.291-69.993-177.802 0-248.093 69.986-70.299 177.03-70.299 247.015 0 69.987 70.291 69.987 177.802 0 248.093-69.986 70.298-181.144 66.158-247.015 0z"  horiz-adv-x="1024" />

    
    <glyph glyph-name="tiaojie-" unicode="&#59604;" d="M320 533.333333a42.666667 42.666667 0 0 0-42.666667-42.666666l-32.426666 0 0.277333-2.26133399 0.149333-3.07200001L245.333333 32a32 32 0 0 0-63.85066599-3.072l-0.14933401 3.072L181.333333 485.333333a32.213333 32.213333 0 0 0 0.426667 5.333334L149.333333 490.666667a42.666667 42.666667 0 0 0-42.666666 42.666666l0 85.333334a42.666667 42.666667 0 0 0 42.666666 42.666666l32 0L181.333333 736a32 32 0 0 0 63.850667 3.072L245.333333 736 245.333333 661.333333 277.333333 661.333333a42.666667 42.666667 0 0 0 42.666667-42.666666l0-85.333334z m298.666667-362.666666a42.666667 42.666667 0 0 0-42.666667-42.666667l-32 0 0-96a32 32 0 0 0-63.850667-3.072l-0.149333 3.072L480 128 448 128a42.666667 42.666667 0 0 0-42.666667 42.666667l0 85.333333a42.666667 42.666667 0 0 0 42.666667 42.666667l32 0L480 736a32 32 0 0 0 63.850667 3.072L544 736 544 298.66666699999996 576 298.66666699999996a42.666667 42.666667 0 0 0 42.666667-42.666667l0-85.333333zM917.333333 533.333333a42.666667 42.666667 0 0 0-42.666666-42.666666l-32 0 0-458.666667a32 32 0 0 0-63.850667-3.072l-0.149333 3.072L778.666667 490.666667 746.666667 490.666667a42.666667 42.666667 0 0 0-42.666667 42.666666l0 85.333334a42.666667 42.666667 0 0 0 42.666667 42.666666l32 0L778.666667 736a32 32 0 0 0 63.85066599 3.072L842.666667 736 842.666667 661.333333 874.666667 661.333333a42.666667 42.666667 0 0 0 42.666666-42.666666l0-85.333334z"  horiz-adv-x="1024" />

    
    <glyph glyph-name="sandiantu" unicode="&#59605;" d="M45.67495111 22.929635549999944V808.50716445H3.63633778V-19.91111110999998h1015.76362667v42.84074666zM94.57550222 269.53841778000003a94.19776 92.43420445 90 1 1 184.86840889 0 94.19776 92.43420445 90 1 1-184.86840889 0ZM494.68871111 525.0252800000001a65.76241778 64.53134222 90 1 1 129.06268444 0 65.76241778 64.53134222 90 1 1-129.06268444 0ZM768.48241778 216.28359110999997a74.51306667 73.11928889 90 1 1 146.23857777 0 74.51306667 73.11928889 90 1 1-146.23857777 0ZM71.36711111 100.70243555000002a39.168 38.43527111 90 1 1 76.87054222 0 39.168 38.43527111 90 1 1-76.87054222 0ZM929.65546667 406.16732445a19.63349333 19.26599111 90 1 1 38.53198222 0 19.63349333 19.26599111 90 1 1-38.53198222 0ZM796.66972445 435.0976a22.51889778 22.09678222 90 1 1 44.19356444 0 22.51889778 22.09678222 90 1 1-44.19356444 0ZM313.43843555 608.43804445a29.02812445 28.48540445 90 1 1 56.9708089 0 29.02812445 28.48540445 90 1 1-56.9708089 0ZM624.66389333 351.28888888999995a26.96078222 26.455608890000004 90 1 1 52.91121778 0 26.96078222 26.455608890000004 90 1 1-52.91121778 0ZM380.05191111 352.54499554999995a26.03804445 25.54993778 90 1 1 51.09987556 0 26.03804445 25.54993778 90 1 1-51.09987556 0ZM287.26840889 480.23438222a20.88732445 20.49592889 90 1 1 40.99185778 0 20.88732445 20.49592889 90 1 1-40.99185778 0ZM502.76124445 234.04430221999996a19.63349333 19.26599111 90 1 1 38.53198222 0 19.63349333 19.26599111 90 1 1-38.53198222 0Z"  horiz-adv-x="1024" />

    
    <glyph glyph-name="app" unicode="&#59606;" d="M540.125 348.55810547V130.875a28.125 28.125 0 0 0-28.125-28.125 27.57568359 27.57568359 0 0 0-28.125 28.125V348.55810547L287 462.19013671a28.125 28.125 0 0 0-10.12939453 38.24296876A27.56513673 27.56513673 0 0 0 315.125 510.5625l196.875-112.5 195.18310547 112.5a27.56513673 27.56513673 0 0 0 38.25439453-10.12939453 28.11445313 28.11445313 0 0 0-10.12939453-38.24384766L540.125 349.68925780999996z m0 0M118.25 609v-450l393.75-225 393.75 225V609L512 834z m731.25-421.875L512-9.75 174.5 187.125V580.875L512 777.75l337.5-196.875z m0 0"  horiz-adv-x="1024" />

    
    <glyph glyph-name="icon" unicode="&#59607;" d="M896.938511 759.228998l-1.19449 0.341283L518.000906 895.514573a6.768774 6.768774 0 0 1-4.721078 0L131.953244 759.399639a5.119241 5.119241 0 0 0-1.25137-0.341282 52.671303 52.671303 0 0 1-45.163083-51.135531v-493.267324c0-30.601686 70.361125-116.320535 133.896596-174.509242l0.511924-0.455044a1445.218653 1445.218653 0 0 1 287.246308-167.057902c0.910087-0.341283 1.820175-0.568805 2.787143-0.568805h4.038512a6.711894 6.711894 0 0 1 3.014664 0.682566l2.50274 1.194489a1432.30679 1432.30679 0 0 1 284.629808 165.692772l0.568804 0.511924c63.535471 58.302469 133.896596 144.078198 133.896596 174.452362V708.150348a48.689671 48.689671 0 0 1-41.693375 51.07865z m-134.010357-266.25742l-265.802376-268.077594a37.825504 37.825504 0 0 0-53.865793 0.341283L284.847912 389.392266a35.379644 35.379644 0 0 0-9.499036 35.720927 36.744775 36.744775 0 0 0 27.700783 25.198043 37.825504 37.825504 0 0 0 36.005329-11.546733l131.621378-136.342456 238.613517 240.718095h0.056881-0.056881v-0.056881a37.996145 37.996145 0 0 0 35.777808 10.067841 36.915417 36.915417 0 0 0 26.790695-25.084281 35.436525 35.436525 0 0 0-8.930232-35.095243z"  horiz-adv-x="1024" />

    
    <glyph glyph-name="anniu" unicode="&#59608;" d="M900.48 88.16H123.46c-55.14 0-100 44.86-100 100V580.01c0 55.14 44.86 100 100 100h777.02c55.14 0 100-44.86 100-100v-391.85c0-55.14-44.86-100-100-100zM123.46 600.01c-11.03 0-20-8.97-20-20v-391.85c0-11.03 8.97-20 20-20h777.02c11.03 0 20 8.97 20 20V580.01c0 11.03-8.97 20-20 20H123.46zM809.77 299.88H221.02c-5.52 0-10 4.48-10 10v148.4c0 5.52 4.48 10 10 10h588.76c5.52 0 10-4.48 10-10v-148.4c-0.01-5.52-4.48-10-10.01-10z"  horiz-adv-x="1024" />

    
    <glyph glyph-name="tubiaoku-" unicode="&#59842;" d="M322.56 348.16h97.28v-215.04H322.56zM481.28 537.6h97.28v-404.48H481.28zM634.88 435.2h97.28v-302.08h-97.28zM957.44 696.32H97.28c-15.36 0-30.72-15.36-30.72-30.72s15.36-30.72 30.72-30.72h10.24v-486.4c0-76.8 66.56-143.36 143.36-143.36h547.84c76.8 0 143.36 66.56 143.36 143.36V634.88h10.24c15.36 0 30.72 15.36 30.72 30.72 5.12 15.36-10.24 30.72-25.6 30.72zM870.4 148.48c0-40.96-30.72-71.68-71.68-71.68H256c-40.96 0-71.68 30.72-71.68 71.68V634.88H870.4v-486.4z"  horiz-adv-x="1024" />

    
    <glyph glyph-name="ditu1" unicode="&#59609;" d="M1234.496474 802.344806l-60.804334-27.424699c-2.76997-1.244986-6.093933-0.829991-8.447908 0.969989l-61.08133 47.369481c-0.277997 0.276997-0.691992 0.553994-0.96999 0.831991l-62.881311 65.789279c-1.383985 1.384985-3.322964 2.353974-5.261942 2.492973L994.189107 895.97378c-1.80098 0.139998-3.739959-0.274997-5.264943-1.382985l-34.62462-22.716751c-1.662982-1.107988-2.908968-2.76997-3.463962-4.56995l-23.959738-81.440107c-0.692992-2.493973-2.494973-4.432951-4.847947-5.402941l-27.424699-10.94088c-3.185965-1.246986-5.263942-4.294953-5.263943-7.757915v-28.116692c0-3.877958 2.76997-7.33992 6.509929-8.171911l56.095386-12.049868c7.201921-1.522983 9.001901-11.079879 2.769969-15.096834l-54.572402-35.319613c-0.274997-0.137998-0.552994-0.413995-0.829991-0.552994l-118.145705-98.478921c-1.383985-1.244986-3.185965-1.79998-4.985946-1.937979l-52.769421-1.939979c-1.108988 0-2.077977-0.274997-3.047967-0.690992l-51.248439-22.714751c-2.213976-0.969989-4.846947-0.969989-6.924924 0.136998l-68.144253 32.965639a8.390908 8.390908 0 0 1-2.631971 0.829991l-89.336021 10.664883c-3.046967 0.415995-5.539939 2.354974-6.646927 5.124944l-12.604862 30.887662c-0.830991 1.939979-2.216976 3.461962-4.155955 4.292953l-77.146155 37.120593c-2.632971 1.244986-4.432951 3.739959-4.709948 6.647927l-1.522983 16.619818v0.969989l0.968989 35.319613c0 1.661982-0.415995 3.183965-1.246986 4.56995l-32.824641 52.493425c-2.355974 3.739959-7.34192 4.986945-11.219877 2.76997L297.50674 746.390419l-1.663982-1.246986-11.909869-11.91087c-1.80098-1.80198-4.431951-2.632971-7.064923-2.354974l-27.146702 3.738959c-3.599961 0.554994-7.202921-1.522983-8.724905-4.847947l-12.880858-28.807684c-1.385985-3.047967-4.432951-4.986945-7.757915-4.849947l-35.041617 0.832991c-3.738959 0.136998-7.063923-2.354974-8.17191-5.818936l-19.666784-64.127298c-0.831991-2.907968-3.324964-5.124944-6.232932-5.677937L57.889366 601.650005c-0.415995-0.138998-0.829991-0.138998-1.246987-0.413995L5.396941 582.120219c-3.739959-1.383985-5.955935-5.261942-5.263942-9.278898l3.877957-21.468765c0.138998-0.554994 0.277997-1.107988 0.415995-1.523983l33.933629-86.149056c0-0.139998 0.138998-0.277997 0.138998-0.416996 1.938979-4.154954 31.579654-68.144253 31.163659-74.515183-0.415995-5.402941-15.096835-43.213527-20.221779-55.955387a8.059912 8.059912 0 0 1 0.96999-7.896914l13.295854-18.280799c0.415995-0.554994 0.829991-1.107988 1.385985-1.524984l111.634777-93.07598c0.554994-0.552994 1.246986-0.829991 1.939978-1.244986l172.301112-76.318164c1.661982-0.691992 3.461962-0.829991 5.124944-0.552994l103.462867 22.575753a8.531907 8.531907 0 0 0 5.816936-0.830991l40.305558-22.160757c3.462962-1.939979 5.124944-5.955935 3.879958-9.694894l-24.516732-79.641127c-0.969989-3.185965 0-6.649927 2.630972-8.726905l88.782027-75.207176a8.472907 8.472907 0 0 1 8.449907-1.385985l109.003806 43.352525c2.353974 0.969989 5.124944 0.692992 7.340919-0.691992l71.053222-43.352525c0.276997-0.138998 0.415995-0.277997 0.691992-0.415995l31.856651-23.822739c0.691992-0.552994 1.522983-0.969989 2.354974-1.246987l13.989847-4.56995c4.985945-1.662982 10.249888 1.661982 10.802882 6.924924l1.521983 14.543841c0.277997 2.630971 1.80198 5.122944 4.293953 6.36993l178.120048 98.339923c1.383985 0.830991 2.629971 1.939979 3.322964 3.461962l63.435305 122.439658c0.692992 1.246986 0.970989 2.630971 0.970989 4.016956l-2.909968 97.784929c0 1.79998-0.691992 3.599961-1.939979 4.985945l-37.671587 45.568501-27.008704 34.210625a8.331909 8.331909 0 0 0 0.137999 10.388886l41.412546 50.415448c0.830991 0.969989 1.79998 1.661982 2.908968 2.216976 6.926924 3.322964 6.093933 13.433853-1.383985 15.51083l-18.974792 5.263942c-0.693992 0.138998-1.385985 0.277997-2.216976 0.277997h-50.832443c-2.629971 0-5.124944 1.244986-6.646927 3.322963l-12.466863 17.174812c-2.629971 3.601961-1.938979 8.726904 1.524983 11.495874l61.496326 48.199472c5.539939 4.432951 13.71085 0.139998 13.433853-6.924924l-0.552994-10.94188c-0.277997-6.232932 5.954935-10.526885 11.633873-8.032912l26.039714 11.633872c0.830991 0.415995 1.522983 0.829991 2.077977 1.385985l122.438659 109.003806c1.523983 1.383985 2.631971 3.324964 2.76897 5.539939l5.40194 65.098287c0.277997 4.154954 3.739959 7.477918 7.894914 7.616917l12.327865 0.415995c4.293953 0.138998 7.616917 3.461962 7.893913 7.755915l5.816937 80.471118c0.415995 6.37193-6.093933 10.94388-11.772871 8.310909z m-149.586361-720.782102l-17.727806-54.019408 22.852749-32.132648 17.729806 34.210625 13.572851 36.289602-9.419896 25.900717-27.007704-10.249888zM796.819269-91.710398l-24.929727-15.51383 17.726806-20.774772 22.85275 5.124944 26.039714 24.929727-8.309909 14.54384-33.379634-8.309909z"  horiz-adv-x="1246" />

    
    <glyph glyph-name="youduiqi" unicode="&#59610;" d="M136.832 839.616h750.336c35.77600031 0 53.63200031-17.92000031 53.63200031-53.63200031 0-35.712-17.92000031-53.568-53.63200031-53.568H136.832C101.05599969 732.41599969 83.19999969 750.27199969 83.19999969 785.92000031 83.19999969 821.76 101.12 839.68000031 136.832 839.68000031zM136.832 303.61600031h750.336c35.77600031 0 53.63200031-17.92000031 53.63200031-53.63200031 0-35.712-17.92000031-53.568-53.63200031-53.568H136.832c-35.77600031 0-53.63200031 17.856-53.63200031 53.568 0 35.77600031 17.92000031 53.63200031 53.63200031 53.63200031zM458.432 571.5840000000001h428.80000031c35.712 0 53.568-17.856 53.568-53.568 0-35.77600031-17.92000031-53.63200031-53.63200031-53.63200031h-428.80000031c-35.712 0-53.568 17.92000031-53.568 53.63200031 0 35.712 17.92000031 53.568 53.63200031 53.568zM404.79999969 35.584000309999965h482.36800031c35.77600031 0 53.63200031-17.856 53.63200031-53.568 0-35.712-17.92000031-53.63200031-53.63200031-53.63200031H404.79999969c-35.712 0-53.568 17.92000031-53.568 53.63200031 0 35.712 17.856 53.568 53.568 53.568z"  horiz-adv-x="1024" />

    
    <glyph glyph-name="juzhentu" unicode="&#59611;" d="M107 834h470.4975a45 45 0 0 0 45-45v-426.92625a45 45 0 0 0-45-45H107a45 45 0 0 0-45 45V789a45 45 0 0 0 45 45z m645.5475-0.03375H917a45 45 0 0 0 45-45V362.0625a45 45 0 0 0-45-45H752.5475a45 45 0 0 0-45 45V788.96625a45 45 0 0 0 45 45zM107 230.31375000000003h470.4975a45 45 0 0 0 45-45V-21a45 45 0 0 0-45-45H107a45 45 0 0 0-45 45V185.32500000000005a45 45 0 0 0 45 45z m645.5475 0H917a45 45 0 0 0 45-45V-21a45 45 0 0 0-45-45H752.5475a45 45 0 0 0-45 45V185.32500000000005a45 45 0 0 0 45 45z"  horiz-adv-x="1024" />

    
    <glyph glyph-name="danhang" unicode="&#59612;" d="M914.285714 603.428571H109.714286a73.142857 73.142857 0 0 1-73.142857-73.142857v-303.030857a73.142857 73.142857 0 0 1 73.142857-73.142857h804.571428a73.142857 73.142857 0 0 1 73.142857 73.142857V530.285714a73.142857 73.142857 0 0 1-73.142857 73.142857zM109.714286 530.285714h804.571428v-303.030857H109.714286V530.285714zM229.888 478.025143a36.571429 36.571429 0 0 0 36.315429-32.292572l0.256-4.278857v-125.366857a36.571429 36.571429 0 0 0-72.923429-4.278857l-0.219429 4.278857V441.417143a36.571429 36.571429 0 0 0 36.571429 36.571428z"  horiz-adv-x="1024" />

    
    </font>
</defs>
</svg>
