<?xml version="1.0" standalone="no"?>
<!DOCTYPE svg PUBLIC "-//W3C//DTD SVG 1.1//EN" "http://www.w3.org/Graphics/SVG/1.1/DTD/svg11.dtd" >
<!--
2013-9-30: Created.
-->
<svg>
<metadata>
Created by iconfont
</metadata>
<defs>

<font id="iconfont" horiz-adv-x="1024" >
  <font-face
    font-family="iconfont"
    font-weight="500"
    font-stretch="normal"
    units-per-em="1024"
    ascent="896"
    descent="-128"
  />
    <missing-glyph />
    
    <glyph glyph-name="ditu" unicode="&#58932;" d="M511.662821 422.902008c61.621453 0 111.799272 47.734164 111.799272 106.47194 0 58.737776-50.177819 106.469893-111.799272 106.469893-61.620429 0-111.798249-47.732118-111.798249-106.469893C399.863549 470.636173 450.041368 422.902008 511.662821 422.902008zM511.662821 593.265094c37.07643 0 67.080791-28.605501 67.080791-63.891146 0-35.243689-30.003338-63.893192-67.080791-63.893192-37.011962 0-67.079768 28.649504-67.079768 63.893192C444.583053 564.659593 474.649835 593.265094 511.662821 593.265094zM824.065923 558.98229c-0.873903-14.937201-1.24434-26.683732-4.234441-49.436946l94.307899 29.740348 0-466.629673-268.320095-74.633814-312.577065 86.776366 0 0.12996-0.217964-0.089028-0.240477 0.089028 0-0.174985-223.597521-71.795163L109.18626 477.754291l92.561116 22.402219c-2.227738 12.797467-3.123131 26.420743-3.123131 40.048111l0 1.702782L64.467779 509.545344l0-553.665958 44.719504 14.456247 223.837998 71.925123 312.795029-86.656639 313.038576 86.700641L958.858886 596.014718 824.065923 558.98229zM394.186246 227.035062c1.746784-2.487657 3.472078-4.497431 4.869914-5.940292 40.962947-49.434899 82.231863-82.319867 84.022649-83.71668l28.757974-22.797215 28.626991 22.971178c1.790786 1.39886 42.927695 34.674731 83.804684 83.937714 1.397836 1.483794 3.188622 3.5345 4.913916 6.070252 58.453297 75.899644 131.122363 185.866175 147.544381 281.069467 3.164063 21.703301 3.25309 34.848693 3.25309 36.288484 0.547469 71.143317-27.90556 138.002051-80.093153 188.04991-50.528813 48.475038-117.390617 75.15877-188.224896 75.15877-70.550823 0-137.235594-26.683732-187.764408-75.15877-52.472072-50.307779-81.099063-117.520577-80.551594-189.183733 0-1.13587 0.085958-14.326287 3.123131-34.981722C264.112772 406.917966 346.125647 289.137469 394.186246 227.035062zM511.662821 765.548926c123.438357 0 224.493937-98.390891 223.598544-220.62891 0 0 0-11.047614-2.687202-29.389354-14.760169-85.59547-84.503603-191.629435-140.40375-264.037559-0.458441-0.873903-1.353834-1.702782-1.790786-2.139733-38.908148-47.254234-78.716806-79.219249-78.716806-79.219249s-39.806611 31.529087-78.715783 78.782298c-0.436952 0.436952-1.332345 1.309832-1.790786 2.139733C375.256104 323.027323 305.511647 429.497217 290.751478 514.700761c-2.686179 18.297738-2.686179 29.390377-2.686179 29.390377C287.169907 666.326087 388.224464 765.548926 511.662821 765.548926z"  horiz-adv-x="1024" />

    
    <glyph glyph-name="renwuqingdan" unicode="&#59129;" d="M512 676.571429 473.572571 702.429257 370.143086 598.999771 318.429257 650.7136 266.715429 598.999771 370.143086 495.572114ZM548.571429 603.428571l219.428571 0 0-36.571429-219.428571 0 0 36.571429ZM512 457.142857 473.572571 483.000686 370.143086 379.5712 318.429257 431.285029 266.715429 379.5712 370.143086 276.143543ZM548.571429 384l219.428571 0 0-36.571429-219.428571 0 0 36.571429ZM877.714286 859.428571 146.285714 859.428571c-20.214857 0-36.571429-16.374857-36.571429-36.571429l0-877.714286c0-20.214857 16.356571-36.571429 36.571429-36.571429l475.428571 0 292.571429 256L914.285714 822.857143C914.285714 843.053714 897.929143 859.428571 877.714286 859.428571zM658.285714 37.7856 658.285714 164.571429l144.928914 0L658.285714 37.7856zM841.142857 237.714286 621.714286 237.714286c-20.214857 0-36.571429-16.356571-36.571429-36.571429l0-219.428571L182.857143-18.285714 182.857143 786.285714l658.285714 0L841.142857 237.714286z"  horiz-adv-x="1024" />

    
    <glyph glyph-name="xiazai" unicode="&#58939;" d="M258.402 462.479l202.221-202.256c13.723-13.675 31.975-21.201 51.369-21.201 19.439 0 37.688 7.544 51.394 21.25l202.216 202.202c15.794 15.799 15.794 41.489 0 57.283-7.649 7.651-17.821 11.861-28.639 11.861s-20.989-4.211-28.639-11.861L552.503 363.954 552.503 801.789c0 22.341-18.168 40.505-40.505 40.505-22.337 0-40.5-18.171-40.5-40.505L471.498 363.92 315.68 519.757c-7.649 7.651-17.822 11.861-28.639 11.861-10.818 0-20.988-4.212-28.639-11.861-7.651-7.649-11.863-17.822-11.863-28.639S250.753 470.128 258.402 462.479zM811.947 735.164c-22.337 0-40.5-18.163-40.5-40.5s18.169-40.5 40.5-40.5c48.551 0 88.051-39.501 88.051-88.052l0-471.348c0-48.552-39.501-88.052-88.051-88.052L212.053 6.712c-48.552 0-88.051 39.501-88.051 88.052L124.002 566.112c0 48.552 39.496 88.052 88.051 88.052 22.337 0 40.5 18.163 40.5 40.5s-18.169 40.5-40.5 40.5C118.836 735.164 43 659.33 43 566.109l0-471.348c0-93.218 75.833-169.055 169.053-169.055l0 0 599.894 0c93.217 0 169.053 75.834 169.053 169.055L981 566.109C981 659.328 905.167 735.164 811.947 735.164z"  horiz-adv-x="1024" />

    
    <glyph glyph-name="tupian" unicode="&#58926;" d="M887.476828 895.871071 136.623117 895.871071c-18.862592 0-136.516676 0-136.516676-136.516676l0-750.809735c0-136.54466 136.516676-136.54466 136.516676-136.54466l750.85471 0c136.515676 0 136.515676 136.54466 136.515676 136.54466L1023.993504 759.354395C1023.992504 895.871071 906.352413 895.871071 887.476828 895.871071M955.733167 8.54466c0 0 0-68.258338-68.256339-68.258338L630.030876 208.432371 489.654329 86.517638l-210.643776 195.032389L68.377772 86.517638 68.377772 759.355395c0 68.258338 49.381753 68.258338 68.244346 68.258338L887.476828 827.613733c18.875585 0 68.256339 0 68.256339-68.258338L955.733167 8.54466zM682.699815 623.366428c-75.516333 0-136.725561-61.318167-136.725561-136.960431 0-75.586295 61.209227-136.932446 136.725561-136.932446 75.477355 0 136.725561 61.347151 136.725561 136.932446C819.425376 562.047261 758.17717 623.366428 682.699815 623.366428"  horiz-adv-x="1024" />

    
    <glyph glyph-name="biaozhunjianmro" unicode="&#59084;" d="M767.987465 767.982476l-511.974929 0-255.986953-447.977423 255.986953-447.977423 511.974929 0 255.986953 447.977423L767.987465 767.982476zM730.863999-63.976912l-437.729022 0-219.426306 383.980941 219.426306 383.980941 437.729022 0 219.363884-383.980941L730.863999-63.976912zM511.999488 511.993476c-106.119817 0-191.99047-85.934099-191.99047-191.989447 0-106.058418 85.870654-191.991494 191.99047-191.991494 105.994973 0 191.99047 85.934099 191.99047 191.991494C703.989959 426.060401 617.994462 511.993476 511.999488 511.993476zM511.999488 192.009018c-70.62136 0-127.992965 57.43505-127.992965 127.995011 0 70.557915 57.371605 127.992965 127.992965 127.992965 70.558938 0 127.993988-57.43505 127.993988-127.992965C639.993476 249.444067 582.558427 192.009018 511.999488 192.009018z"  horiz-adv-x="1024" />

    
    <glyph glyph-name="xinjian" unicode="&#59029;" d="M932 603.2l-262.8 264.4c-18.1 18.2-42.7 28.4-68.3 28.4L108 896c-59.7 0-108-48.4-108-108l0-808c0-59.7 48.4-108 108-108l744 0c59.7 0 108 48.4 108 108L960 535.3C960 560.8 949.9 585.2 932 603.2zM896-20c0-24.3-19.7-44-44-44L108-64c-24.3 0-44 19.7-44 44l0 808c0 24.3 19.7 44 44 44l492.9 0c8.5 0 16.9-3.5 22.9-9.5l262.8-264.4c6.1-6.1 9.4-14.2 9.4-22.8L896-20zM736 385 512.1 385l0 223c0 17.7-14.3 32-32 32s-32-14.3-32-32l0-223L224 385c-17.7 0-32-14.3-32-32s14.3-32 32-32l224.1 0 0-225c0-17.7 14.3-32 32-32s32 14.3 32 32l0 225L736 321c17.7 0 32 14.3 32 32S753.7 385 736 385z"  horiz-adv-x="1024" />

    
    <glyph glyph-name="share_link" unicode="&#58895;" d="M735.877 831.758c-59.811 0-116.028-23.288-158.304-65.574l-167.91-167.907c-42.293-42.251-65.572-98.497-65.572-158.274 0-76.547 38.6-146.988 103.27-188.484 9.802-6.279 21.22-7.991 31.759-5.625 10.442 2.297 20.002 8.573 26.236 18.313 6.259 9.776 7.982 21.126 5.66 31.62-2.298 10.493-8.585 20.133-18.34 26.374-40.469 25.96-64.63 69.994-64.63 117.802 0 37.383 14.549 72.5 40.982 98.909l167.917 167.907c26.415 26.443 61.561 40.984 98.933 40.984 77.148 0 139.925-62.76 139.925-139.891 0-37.381-14.56-72.5-40.982-98.94l-79.651-79.668c-8.393-8.402-12.483-19.445-12.295-30.456 0.19-10.493 4.287-20.884 12.295-28.91 8.197-8.196 18.939-12.278 29.683-12.278 10.752 0 21.495 4.082 29.674 12.278l79.651 79.668c42.294 42.253 65.58 98.496 65.58 158.306-0.001 123.429-100.433 223.846-223.88 223.846zM576.627 516.483c-9.799 6.309-21.22 8.024-31.755 5.656-10.436-2.295-20.003-8.607-26.238-18.313-6.247-9.774-7.981-21.125-5.65-31.619 2.289-10.495 8.574-20.132 18.33-26.373 40.478-25.962 64.638-69.995 64.638-117.805 0-37.38-14.558-72.498-40.984-98.94l-167.915-167.909c-26.417-26.407-61.559-40.982-98.934-40.982-77.147 0-139.923 62.795-139.923 139.922 0 37.383 14.549 72.501 40.982 98.941l79.643 79.668c8.393 8.368 12.49 19.446 12.301 30.454-0.188 10.459-4.295 20.886-12.301 28.91-8.198 8.198-18.94 12.278-29.676 12.278-10.76 0-21.493-4.080-29.682-12.278l-79.65-79.667c-42.295-42.251-65.572-98.495-65.572-158.308 0-123.425 100.433-223.877 223.878-223.877 59.811 0 116.021 23.285 158.297 65.606l167.909 167.909c42.295 42.251 65.581 98.497 65.581 158.271 0.001 76.549-38.606 146.991-103.279 188.456z"  horiz-adv-x="1024" />

    
    <glyph glyph-name="diaozhengdaxiaoresize5" unicode="&#59168;" d="M874.24 291.50208c22.29248 2.14016 42.97728 11.73504 59.2384 27.56608l0-282.50112c0-48.85504-39.76192-88.59648-88.6272-88.59648l-634.9824 0c-48.87552 0-88.63744 39.74144-88.63744 88.59648L121.23136 670.8736c0 48.85504 39.76192 88.60672 88.63744 88.60672l283.26912 0c-15.24736-15.64672-25.38496-36.29056-27.60704-59.22816L209.85856 700.25216c-16.20992 0-29.39904-13.17888-29.39904-29.37856l0-634.29632c0-16.18944 13.18912-29.36832 29.39904-29.36832l634.9824 0c16.20992 0 29.39904 13.17888 29.39904 29.36832L874.24 291.50208zM890.15296 765.55264 589.2608 765.55264c-24.53504 0-44.42112-19.88608-44.42112-44.43136 0-24.53504 19.88608-44.42112 44.42112-44.42112l191.21152 0c-1.8432-1.34144-3.6864-2.70336-5.34528-4.37248L461.6704 358.89152l0 193.6384c0 24.53504-19.88608 44.42112-44.42112 44.42112-12.26752 0-23.37792-4.95616-31.41632-13.0048-8.0384-8.05888-13.01504-19.13856-13.01504-31.41632l0-300.9024c0-24.5248 19.88608-44.42112 44.42112-44.42112L718.1312 207.2064c24.53504 0 44.42112 19.89632 44.42112 44.4416 0 24.5248-19.88608 44.42112-44.42112 44.42112L526.94016 296.06912c1.8432 1.34144 3.67616 2.70336 5.33504 4.36224l313.43616 313.4464 0-193.64864c0-24.53504 19.88608-44.42112 44.42112-44.42112 12.26752 0 23.37792 4.95616 31.41632 13.0048 8.0384 8.05888 13.01504 19.1488 13.01504 31.41632L934.56384 721.13152C934.57408 745.65632 914.67776 765.55264 890.15296 765.55264z"  horiz-adv-x="1024" />

    
    <glyph glyph-name="icon4" unicode="&#58924;" d="M947.960675 696.671209l-92.764753-92.548836-123.656321 123.434264 92.768847 92.548836c17.024745 17.029862 44.745087 17.029862 61.824067 0l61.828161-61.715597C965.044772 741.362061 965.044772 713.694931 947.960675 696.671209zM298.47437 295.581228l123.656321-123.434264-164.803463-41.091884L298.47437 295.581228zM824.308447 573.233875 453.287295 202.977134 329.634044 326.413444l370.962823 370.256742L824.308447 573.233875zM154.843112 699.727825l0-673.501254 673.503301 0L828.346413 512.115889l87.855954 87.853907L916.202367-17.702941c0-24.287149-19.641339-43.930535-43.927465-43.930535L110.91667-61.633477c-24.282033 0-43.927465 19.642362-43.927465 43.930535L66.989205 743.65529c0 24.281009 19.645432 43.926442 43.927465 43.926442l620.184955 0-87.85493-87.853907L154.843112 699.727825z"  horiz-adv-x="1024" />

    
    <glyph glyph-name="35" unicode="&#58913;" d="M467.2-128c-25.6 0-44.8 6.4-57.6 25.6l-384 384c-32 32-32 89.6 0 121.6L512 889.6C518.4 896 531.2 896 537.6 896l377.6-83.2c12.8 0 19.2-12.8 25.6-25.6L1024 409.6c0-12.8 0-19.2-6.4-32l-486.4-486.4C512-121.6 492.8-128 467.2-128zM544 832 70.4 358.4C64 345.6 64 332.8 70.4 326.4l384-384c6.4-6.4 19.2-6.4 32 0L960 416l-76.8 339.2L544 832zM652.8 364.8c-44.8 0-83.2 19.2-115.2 44.8-64 64-64 166.4 0 230.4 32 32 70.4 44.8 115.2 44.8 44.8 0 83.2-19.2 115.2-44.8 32-32 44.8-70.4 44.8-115.2S800 441.6 768 409.6C736 377.6 697.6 364.8 652.8 364.8zM652.8 620.8c-25.6 0-51.2-12.8-70.4-25.6-38.4-38.4-38.4-102.4 0-140.8 38.4-38.4 102.4-38.4 140.8 0 19.2 19.2 25.6 44.8 25.6 70.4 0 25.6-12.8 51.2-25.6 70.4C704 614.4 678.4 620.8 652.8 620.8z"  horiz-adv-x="1024" />

    
    <glyph glyph-name="bianji2" unicode="&#59177;" d="M858.24 663.04l-132.48 133.12c-48.64 48.64-128 48.64-177.28 0l-460.8-461.44C72.32 318.72 64 298.24 64 277.12l0-211.84c0-42.24 21.76-64 64-64l213.76 1.28c21.76 0 42.24 8.96 56.96 23.68l459.52 460.8C907.52 535.04 907.52 614.4 858.24 663.04zM333.44 65.92 128 64.64 128 268.8c0 3.84 1.28 7.68 1.92 11.52 1.28-4.48 3.84-8.32 7.04-12.16l193.28-193.28c3.84-3.84 7.68-5.76 12.16-7.04C339.2 67.2 336.64 65.92 333.44 65.92zM382.08 97.28c0 7.68-3.2 14.72-8.96 20.48L179.84 311.04c-5.12 5.12-12.16 7.68-19.2 8.32l312.32 312.32 221.44-221.44L382.08 97.28zM814.08 530.56l-72.32-72.96L520.32 679.04l72.96 72.96c24.32 24.32 64 24.32 88.32 0l132.48-133.12C838.4 594.56 838.4 554.88 814.08 530.56z"  horiz-adv-x="1024" />

    
    <glyph glyph-name="diannaopcxianshiqi" unicode="&#59245;" d="M832 768 192 768C121.344 768 64 710.656 64 640l0-384c0-70.656 57.344-128 128-128l640 0c70.656 0 128 57.344 128 128L960 640C960 710.656 902.656 768 832 768zM896 256c0-35.328-28.608-64-64-64L192 192c-35.392 0-64 28.672-64 64L128 640c0 35.392 28.608 64 64 64l640 0c35.392 0 64-28.608 64-64L896 256zM736 0l-448 0C270.336 0 256-14.336 256-32S270.336-64 288-64l448 0c17.664 0 32 14.336 32 32S753.664 0 736 0z"  horiz-adv-x="1024" />

    
    <glyph glyph-name="shuxingliebiaoxiangqing" unicode="&#59415;" d="M288 256C270.08 256 256 241.92 256 224 256 206.08 270.08 192 288 192 305.92 192 320 206.08 320 224 320 241.92 305.92 256 288 256zM288 640C270.08 640 256 625.92 256 608 256 590.08 270.08 576 288 576 305.92 576 320 590.08 320 608 320 625.92 305.92 640 288 640zM288 448C270.08 448 256 433.92 256 416 256 398.08 270.08 384 288 384 305.92 384 320 398.08 320 416 320 433.92 305.92 448 288 448zM768 832 192 832C121.6 832 64 774.4 64 704l0-576c0-70.4 57.6-128 128-128l576 0c70.4 0 128 57.6 128 128L896 704C896 774.4 838.4 832 768 832zM832 128c0-35.2-28.8-64-64-64L192 64c-35.2 0-64 28.8-64 64L128 704c0 35.2 28.8 64 64 64l576 0c35.2 0 64-28.8 64-64L832 128zM672 640l-256 0C398.08 640 384 625.92 384 608 384 590.08 398.08 576 416 576l256 0C689.92 576 704 590.08 704 608 704 625.92 689.92 640 672 640zM672 448l-256 0C398.08 448 384 433.92 384 416 384 398.08 398.08 384 416 384l256 0C689.92 384 704 398.08 704 416 704 433.92 689.92 448 672 448zM672 256l-256 0C398.08 256 384 241.92 384 224 384 206.08 398.08 192 416 192l256 0c17.92 0 32 14.08 32 32C704 241.92 689.92 256 672 256z"  horiz-adv-x="1024" />

    
    <glyph glyph-name="yidongshu" unicode="&#58950;" d="M384 128C348.653776 128 320 99.346224 320 64 320 28.653776 348.653776 0 384 0 419.346224 0 448 28.653776 448 64 448 99.346224 419.346224 128 384 128ZM384 448C348.653776 448 320 419.346224 320 384 320 348.653776 348.653776 320 384 320 419.346224 320 448 348.653776 448 384 448 419.346224 419.346224 448 384 448ZM384 768C348.653776 768 320 739.346221 320 704 320 668.653779 348.653776 640 384 640 419.346224 640 448 668.653779 448 704 448 739.346221 419.346224 768 384 768ZM640 128C604.653776 128 576 99.346224 576 64 576 28.653776 604.653776 0 640 0 675.346221 0 704 28.653776 704 64 704 99.346224 675.346221 128 640 128ZM640 448C604.653776 448 576 419.346224 576 384 576 348.653776 604.653776 320 640 320 675.346221 320 704 348.653776 704 384 704 419.346224 675.346221 448 640 448ZM640 768C604.653776 768 576 739.346221 576 704 576 668.653779 604.653776 640 640 640 675.346221 640 704 668.653779 704 704 704 739.346221 675.346221 768 640 768Z"  horiz-adv-x="1024" />

    
    <glyph glyph-name="zhijiao-triangle" unicode="&#58962;" d="M71.675-66l-9.675 900 890.325-900z"  horiz-adv-x="1024" />

    
    <glyph glyph-name="tongzhi" unicode="&#58925;" d="M856.798419 102.887554l-73.742515 129.741923L783.055904 494.156866c0 100.20112-75.31636 208.644971-185.111998 248.378927-5.348821 53.104475-40.835034 91.831498-87.334068 91.831498-46.434565 0-82.048691-38.728046-87.332021-91.831498-109.73424-39.733956-185.049576-148.176784-185.049576-248.378927l0-261.527388-77.329203-136.096654c-5.158487-8.997931-5.03262-20.008706 0.125867-28.944216 5.15951-8.933463 14.724353-14.346753 25.042349-14.346753l184.04162 0c13.528108-65.310472 71.353095-114.51308 140.501988-114.51308 69.213361 0 127.036301 49.202609 140.500964 114.51308l184.04162 0c0.505513 0 0.881067 0 1.322112 0 16.045441 0 29.007661 12.898775 29.007661 28.944216C865.482195 90.302935 862.209662 97.664599 856.798419 102.887554M510.609839 776.291594c10.444886 0 18.875906-7.927553 24.287149-19.756973-8.05342 0.818645-15.85613 2.705622-24.287149 2.705622s-16.232706-1.886977-24.287149-2.705622C491.734956 768.365064 500.165975 776.291594 510.609839 776.291594M510.609839-3.258974c-36.808324 0-67.576071 23.657816-79.532381 56.500828l159.062715 0C578.186933 20.399865 547.482631-3.258974 510.609839-3.258974M235.90022 111.192707l56.502875 99.476619c2.515287 4.28049 3.89982 9.314133 3.89982 14.34573L296.302915 494.156866c0 97.747231 91.611487 207.070102 214.306924 207.070102 122.694413 0 214.431767-109.322871 214.431767-207.070102L725.041606 225.015056c0-5.031597 1.322112-10.06524 3.774977-14.34573l56.565297-99.476619L235.90022 111.192707z"  horiz-adv-x="1024" />

    
    <glyph glyph-name="attribute" unicode="&#59055;" d="M323.333 242.667c-16.8 0-30-13.2-30-30s13.2-30 30-30c16.8 0 30 13.2 30 30 0 16.8-13.2 30-30 30zM323.333 602.667c-16.8 0-30-13.2-30-30s13.2-30 30-30c16.8 0 30 13.2 30 30 0 16.8-13.2 30-30 30zM323.333 422.667c-16.8 0-30-13.2-30-30s13.2-30 30-30c16.8 0 30 13.2 30 30 0 16.8-13.2 30-30 30zM773.333 782.667h-540c-66 0-120-54-120-120v-540c0-66 54-120 120-120h540c66 0 120 54 120 120v540c0 66-54 120-120 120zM833.333 122.667c0-33-27-60-60-60h-540c-33 0-60 27-60 60v540c0 33 27 60 60 60h540c33 0 60-27 60-60v-540zM683.333 602.667h-240c-16.8 0-30-13.2-30-30s13.2-30 30-30h240c16.8 0 30 13.2 30 30s-13.2 30-30 30zM683.333 422.667h-240c-16.8 0-30-13.2-30-30s13.2-30 30-30h240c16.8 0 30 13.2 30 30s-13.2 30-30 30zM683.333 242.667h-240c-16.8 0-30-13.2-30-30s13.2-30 30-30h240c16.8 0 30 13.2 30 30s-13.2 30-30 30z"  horiz-adv-x="1024" />

    
    <glyph glyph-name="zhixingzhongduan" unicode="&#59234;" d="M255.842 502.65h134.9l82.277 112.491h-217.18c-97.334 0-176.539-79.203-176.539-176.534v-102.262c0-97.334 79.205-176.535 176.539-176.535h217.18l-84.036 112.491h-133.143c-35.318 0-64.046 28.727-64.046 64.046v102.262c-0.001 35.318 28.726 64.045 64.046 64.045v0zM760.953 615.139h-217.184l82.277-112.491h134.901c35.321 0 64.046-28.726 64.046-64.045v-102.262c0-35.318-28.726-64.046-64.046-64.046h-133.148l-84.036-112.491h217.184c97.329 0 176.535 79.205 176.535 176.535v102.262c0 97.334-79.206 176.534-176.535 176.534v0zM481.317 820.163h54.159v-137.151h-54.159v137.151zM695.484 735.023l-38.286 38.286-110.899-91.173 38.282-38.286 110.901 91.173zM470.496 682.137l-110.899 91.173-38.282-38.286 110.897-91.173 38.285 38.286zM481.317 91.055h54.159v-137.147h-54.159v137.147zM546.297 91.933l110.899-91.174 38.286 38.286-110.901 91.173-38.282-38.285zM321.314 39.043l38.282-38.286 110.899 91.174-38.285 38.285-110.897-91.173z"  horiz-adv-x="1024" />

    
    <glyph glyph-name="dagou1" unicode="&#58976;" d="M825.768 519.984 825.768 519.984 475.889 164.342l0 0c-8.265-8.395-19.68-13.595-32.287-13.595-12.607 0-24.022 5.2-32.29 13.595l0 0L213.584 365.371l0 0c-8.26 8.355-13.372 19.96-13.372 32.775 0 25.63 20.442 46.372 45.617 46.372 12.607 0 24.027-5.195 32.292-13.592l0 0 165.48-168.17 317.637 322.864 0 0c8.265 8.355 19.68 13.552 32.285 13.552 25.17 0 45.625-20.78 45.625-46.367C839.148 539.988 834.033 528.381 825.768 519.984L825.768 519.984 825.768 519.984z"  horiz-adv-x="1024" />

    
    <glyph glyph-name="sanjiao" unicode="&#58970;" d="M750.331 438.797l-238.576-238.087-238.087 238.576z"  horiz-adv-x="1024" />

    
    <glyph glyph-name="chakan" unicode="&#58894;" d="M850.880127 453.010747l-48.063669 48.074925 106.260116 106.257046 48.061622-48.074925L850.880127 453.010747 850.880127 453.010747zM521.806343-5.576763c-95.499028 0-267.341814 68.695568-397.427568 282.381345C243.570411 477.475951 410.983305 553.956833 516.564969 553.956833c91.125417 0 214.228129-41.094954 386.967332-277.151227C740.13793 34.346505 617.308441-5.576763 521.806343-5.576763L521.806343-5.576763zM516.564969 496.425535c-87.37807 0-215.043704-50.818409-334.669222-224.850048 128.264269-176.190815 262.859733-219.634256 334.669222-219.634256 71.806419 0 211.782428 44.243667 329.452407 224.864374C735.765343 434.030463 607.008864 496.425535 516.564969 496.425535L516.564969 496.425535zM511.348154 135.60777c-77.976956 0-141.197836 63.206554-141.197836 141.197836 0 77.973886 63.22088 141.18351 141.197836 141.18351 77.973886 0 141.197836-63.209624 141.197836-141.18351C652.54599 198.814324 589.323063 135.60777 511.348154 135.60777L511.348154 135.60777zM511.348154 360.472144c-46.216601 0-83.680864-37.46631-83.680864-83.666538 0-46.216601 37.464263-83.669608 83.680864-83.669608 46.213531 0 83.652212 37.453007 83.652212 83.669608C595.001389 323.004811 557.561685 360.472144 511.348154 360.472144L511.348154 360.472144zM479.966423 773.576763l67.978231 0 0-172.563194-67.978231 0L479.966423 773.576763 479.966423 773.576763zM66.861804 557.364443l47.245024 48.822962 104.465237-107.943454-47.246047-48.820915L66.861804 557.364443 66.861804 557.364443zM66.861804 557.364443"  horiz-adv-x="1024" />

    
    <glyph glyph-name="lixian" unicode="&#59271;" d="M744.066403 493.933785l133.080971 64.10297 44.36237-45.328371-133.087111-64.10911L744.066403 493.933785zM655.353942 584.602807l177.443341 181.325765 44.350091-45.328371L699.704033 539.262156 655.353942 584.602807zM566.636365 675.25955l62.727647 136.016837 44.36851-45.347814-62.753229-135.997394L566.636365 675.25955zM633.918747 111.368716l35.18229-42.852994c25.440415-25.926486 66.476017-25.798573 91.711771 0.352017l68.849064 70.826092c25.235754 26.086122 25.037233 68.529793-0.37146 94.328365l-35.260062 42.865273c-18.007119 18.333554-43.933605 27.711132-66.578348 19.887956l-71.433936 73.960479c50.560536 52.185546 132.837424 52.42193 183.596482 0.594541l81.34261-89.8821c50.823526-51.935859 51.072189-136.343271 0.531096-188.593286L807.069319-25.460626C756.585531-77.525422 674.352645-77.82525 623.453395-25.946696l-81.317027 89.889263c-50.759057 52.000328-50.989301 136.343271-0.588401 188.522678l71.65804-72.496128C607.333252 157.669228 616.730273 128.927627 633.918747 111.368716zM411.68427 591.601198c7.228635 22.785959-1.63729 48.885384-19.280112 66.910922l-26.444279 43.358507c-25.113981 25.497721-65.420989 25.37697-90.182952-0.306992l-67.449181-69.668733c-24.794709-25.670659-24.685215-66.969251 0.261966-92.524277l26.444279-43.428092 52.863998-37.485753c16.765849-17.086144-8.546653 11.034311 12.800537 17.047258l69.75162-71.606875c-49.621141-51.284013-130.297578-51.514257-180.231851-0.537236l-71.606875 89.479941c-50.01716 50.977022-50.215682 133.822868-0.556679 185.036273L230.358505 794.101215c49.710169 51.16224 130.451074 51.520397 180.264597 0.601704l71.792093-89.651856c49.863664-50.861388 50.036603-133.829008 0.460488-184.997388L411.68427 591.601198zM242.205321 275.045519l-133.080971-64.10911-44.36237 45.334511 133.087111 64.10911L242.205321 275.045519zM330.917782 196.056514 153.48058 14.711306l-44.35623 45.328371 177.443341 181.345208L330.917782 196.056514zM419.635359 105.381351l-59.58098-136.003534-44.342927 45.334511 59.548234 136.010697L419.635359 105.381351z"  horiz-adv-x="1024" />

    
    <glyph glyph-name="zaixian" unicode="&#59294;" d="M274.496771 459.211982l-80.757279 80.648808c-25.4046 25.468045-25.51921 66.624397-0.268106 92.199888l68.671009 69.435419c25.244964 25.594935 66.292845 25.716708 91.869361 0.299829l80.751139-80.573083c17.971303-17.977443 26.997887-43.974537 19.666922-66.693981l72.495104-71.290673c50.514487 50.980091 50.330292 133.669372-0.503467 184.349635L399.471111 794.31611c-50.711985 50.744731-132.929522 50.387597-183.571922-0.599657L101.526301 677.89661c-50.565652-51.0507-50.380434-133.604904 0.560772-184.41308L228.877781 366.947626c50.827619-50.808176 133.01241-50.571792 183.54634 0.529049l-71.028707 71.361281C319.650157 432.851615 291.581891 442.19133 274.496771 459.211982L274.496771 459.211982zM919.223678 282.824693 796.832164 405.044292c-51.706639 51.662637-135.530766 51.413973-187.008184-0.586354l72.750931-73.706699c23.064298 7.80271 49.475831-1.549286 67.816548-19.825534l75.504648-75.370595c25.882484-25.716708 26.060539-67.994604 0.363274-94.005001l-70.111824-70.576405c-25.697265-26.066679-67.51058-26.188452-93.411483-0.363274l-75.41562 75.376735c-17.505699 17.486256-27.093055 46.1419-21.107737 68.357877l-72.966848 72.253604c-51.337225-52.006468-51.108005-136.053676 0.599657-187.888228L616.237039-23.515321c51.846832-51.700499 135.607514-51.40067 186.994881 0.477884l116.533087 117.916597C971.236286 146.942933 971.007065 231.053586 919.223678 282.824693L919.223678 282.824693zM373.766682 524.644227c-17.302061-17.74106-17.193591-46.3834 0.23536-64.11218L583.118757 247.711987c17.480116-17.61417 45.536103-17.486256 62.671365 0.242524 17.250896 17.862833 17.059538 46.499034-0.305969 64.11218L436.362322 524.886751C418.990676 542.436452 390.998135 542.309562 373.766682 524.644227L373.766682 524.644227z"  horiz-adv-x="1024" />

    
    <glyph glyph-name="wancheng" unicode="&#58916;" d="M486.4 265.6c-19.2-19.2-48-19.2-67.2-3.2l-137.6 131.2-32-35.2 137.6-131.2c38.4-35.2 96-35.2 134.4 3.2l281.6 297.6-35.2 32L486.4 265.6zM512 844.8c-252.8 0-460.8-204.8-460.8-460.8s204.8-460.8 460.8-460.8 460.8 204.8 460.8 460.8S764.8 844.8 512 844.8zM512-28.8c-227.2 0-412.8 185.6-412.8 412.8s185.6 412.8 412.8 412.8 412.8-185.6 412.8-412.8S739.2-28.8 512-28.8z"  horiz-adv-x="1024" />

    
    <glyph glyph-name="dagouyouquan" unicode="&#58931;" d="M512 831.616766C264.7878 831.616766 64.383234 631.2122 64.383234 384s200.404567-447.616766 447.616766-447.616766 447.616766 200.404567 447.616766 447.616766S759.2122 831.616766 512 831.616766zM749.24404 496.653285 490.771928 165.802156c-25.757381-32.969325-73.223154-32.730188-98.382691 0.833916L268.525094 331.872064c-14.827561 19.780982-10.813317 47.835721 8.967665 62.664303 19.780982 14.827561 47.836743 10.813317 62.664303-8.967665l101.483305-142.855154 237.057022 309.05485c15.21897 19.480527 43.349333 22.93576 62.830882 7.71679C761.008798 544.265198 764.46301 516.134834 749.24404 496.653285z"  horiz-adv-x="1024" />

    
    <glyph glyph-name="yiban" unicode="&#58955;" d="M374.720915 276.112828 210.629673 276.112828l0-55.112202 158.683069 0C370.012683 239.772154 371.848495 258.164037 374.720915 276.112828L374.720915 276.112828zM210.629673 490.089224l353.807095 0c29.618575 13.797237 61.45363 22.044062 94.675266 23.715121l0 31.399127L210.629673 545.203472 210.629673 490.089224 210.629673 490.089224zM160.554184 124.462942c-20.847817 0-29.540803 8.698103-29.540803 29.526477l0 593.077573c0 20.828374 8.694009 29.52443 29.540803 29.52443l548.628222 0c20.826328 0 29.54592-8.696056 29.54592-29.52443L738.728326 509.842103c23.485901-4.300956 33.708729-11.326976 54.92596-20.72502L793.654286 786.737504c0 24.76708-20.083407 44.847417-44.847417 44.847417L120.934838 831.584921c-24.769127 0-44.852534-20.081361-44.852534-44.847417l0-672.728658c0-24.758893 20.083407-44.847417 44.852534-44.847417l283.845697 0c-11.346419 21.156856-20.263509 31.520901-26.356274 55.301514L181.020308 124.462942 160.554184 124.462942zM210.629673 679.748794l448.481338 0 0-55.113225-448.481338 0 0 55.113225ZM681.446715 473.719394c-148.146085 0-268.25358-120.090099-268.25358-268.257673 0-148.145062 120.112612-268.257673 268.25358-268.257673 148.164504 0 268.25665 120.113635 268.25665 268.257673C949.703365 353.628272 829.61122 473.719394 681.446715 473.719394zM681.925622-11.299091C562.932508-11.299091 466.477712 85.151611 466.477712 204.143703c0 118.998231 96.455819 215.45712 215.44791 215.45712 119.001301 0 215.452004-96.458889 215.452004-215.45712C897.376603 85.151611 800.921807-11.299091 681.925622-11.299091zM210.629673 410.660196l0-55.113225 197.292412 0c8.973372 19.527752 19.332301 37.97387 30.9325 55.113225L210.629673 410.660196zM824.259328 309.639408 639.752104 125.132184 545.963021 218.655208 506.232135 178.815851 639.752104 45.670411 863.990215 269.908522 824.259328 309.639408Z"  horiz-adv-x="1024" />

    
    <glyph glyph-name="daiban" unicode="&#59397;" d="M120.759083 3.4679V768.352217c0 4.252196 3.447422 7.713952 7.699618 7.713952h643.527285c4.252196 0 7.713952-3.461756 7.713952-7.713952V459.760347h55.82018V768.352217c0 35.024045-28.495752 63.534132-63.534132 63.534132H128.458701c-35.024045 0-63.519798-28.510087-63.519798-63.534132v-764.884317c0-35.024045 28.495752-63.534132 63.519798-63.534133h360.269409v55.820181H128.458701c-4.252196 0-7.699618 3.461756-7.699618 7.713952zM287.660582 343.213528c-15.41357 0-27.91009-12.48321-27.91009-27.91009s12.49652-27.91009 27.91009-27.91009h111.449918c15.41357 0 27.91009 12.48321 27.91009 27.91009s-12.49652 27.91009-27.91009 27.91009h-111.449918zM636.53722 466.300926c0 15.42688-12.49652 27.91009-27.91009 27.91009H287.660582c-15.41357 0-27.91009-12.48321-27.91009-27.91009s12.49652-27.91009 27.91009-27.91009h320.966548c15.41357 0 27.91009 12.48321 27.91009 27.91009zM608.62713 639.704097H287.660582c-15.41357 0-27.91009-12.48321-27.91009-27.91009s12.49652-27.91009 27.91009-27.91009h320.966548c15.41357 0 27.91009 12.48321 27.91009 27.91009s-12.49652 27.91009-27.91009 27.91009zM820.392212 177.251956h-55.643048v90.271873c0 15.42688-12.49652 27.91009-27.91009 27.91009s-27.91009-12.48321-27.91009-27.91009v-118.181963c0-15.42688 12.49652-27.91009 27.91009-27.91009H820.393236c15.41357 0 27.91009 12.48321 27.91009 27.91009-0.001024 15.42688-12.497544 27.91009-27.911114 27.91009zM738.670805 380.874078c-121.258739 0-219.559921-98.300158-219.559921-219.559921 0-121.259763 98.300158-219.560945 219.559921-219.560945 121.259763 0 219.560945 98.300158 219.560945 219.560945 0 121.259763-98.301182 219.559921-219.560945 219.559921z m0-383.299662c-90.286208 0-163.739741 73.453533-163.739741 163.740765 0 90.286208 73.453533 163.739741 163.739741 163.739741 90.286208 0 163.739741-73.453533 163.739741-163.739741 0.001024-90.287232-73.452509-163.740765-163.739741-163.740765z"  horiz-adv-x="1024" />

    
    <glyph glyph-name="zuzhushouce" unicode="&#58912;" d="M917.629659 590.345158c0 0.102328-0.102328 0.306985-0.102328 0.409314-0.511642 2.251224-1.330269 4.297792-2.353553 6.344359-0.306985 0.61397-0.61397 1.125612-0.920955 1.637254-1.22794 2.046567-2.660538 4.093135-4.40012 5.832717L687.493155 821.607275c-1.739582 1.739582-3.78615 3.069851-5.935046 4.297791-0.511642 0.306985-1.023284 0.511642-1.534925 0.818627-2.148896 1.023284-4.40012 1.841911-6.651344 2.353553h-0.306985c-1.637254 0.306985-3.274508 0.511642-4.911762 0.511642H193.861097c-44.001199 0-79.918457-35.81493-79.918457-79.918457V26.413511c0-44.001199 35.81493-79.918457 79.918457-79.918458h644.361747c44.001199 0 79.918457 35.81493 79.918457 79.918458V584.819426c0 1.841911-0.204657 3.683821-0.511642 5.525732zM695.781753 736.367743l92.811831-90.560608 34.177676-33.359049H720.44289c-13.609673 0-24.661137 11.051464-24.661137 24.661138v99.258519z m142.543419-734.820026H193.861097c-13.609673 0-24.661137 11.051464-24.661137 24.661137V749.568102c0 13.609673 11.051464 24.661137 24.661137 24.661138H640.626761v-137.222345c0-44.103528 35.81493-79.918457 79.918457-79.918457h142.441092v-530.879584c0-13.507345-11.051464-24.661137-24.661138-24.661137zM263.649046 514.724493h234.229639c7.674628 0 13.81433 6.139702 13.81433 13.81433s-6.139702 13.81433-13.81433 13.81433H263.649046c-7.674628 0-13.81433-6.139702-13.81433-13.81433s6.139702-13.81433 13.81433-13.81433zM746.536624 376.581193H263.649046c-7.674628 0-13.81433-6.139702-13.81433-13.81433s6.139702-13.81433 13.81433-13.81433h482.887578c7.674628 0 13.81433 6.139702 13.81433 13.81433s-6.242031 13.81433-13.81433 13.81433zM746.536624 210.809234H263.649046c-7.674628 0-13.81433-6.139702-13.81433-13.81433s6.139702-13.81433 13.81433-13.81433h482.887578c7.674628 0 13.81433 6.139702 13.81433 13.81433-0.102328 7.674628-6.242031 13.81433-13.81433 13.81433z"  horiz-adv-x="1024" />

    
    <glyph glyph-name="xing1" unicode="&#58904;" d="M1009.562 441.897c-72.264-88.023-200.049-233.339-200.049-233.339s20.9-159.55 32.614-268.534c5.09-55.51-34.928-79.513-80.25-57.876-86.242 43.325-217.478 110.448-247 125.573-30.044-14.97-162.6-80.988-249.733-124.211-45.844-21.586-86.343 2.416-81.193 57.825 11.869 108.82 32.983 268.216 32.983 268.216S87.685 354.56 14.582 442.471c-25.836 31.928-9.247 77.311 41.697 85.657 103.885 19.64 264.909 50.944 264.909 50.944s88.074 162.335 143.8 261.755C495.657 901.325 516.874 894.34 520.5 892.559c9.452-3.256 24.371-15.022 43.848-51.783 55.091-99.574 142.172-262.124 142.172-262.124s159.13-31.304 261.806-50.995c50.33-8.397 66.765-53.832 41.237-85.76z"  horiz-adv-x="1024" />

    
    <glyph glyph-name="liuyan" unicode="&#58942;" d="M511.37-64.893c-8.928 0-17.658 3.474-24.533 10.62l-103.717 107.703c-6.299 6.585-10.177 15.532-10.177 25.385s3.877 18.8 10.19 25.398c13.559 14.080 35.303 14.080 48.866-0.014l79.362-82.422 79.353 82.422c6.188 6.531 14.917 10.599 24.596 10.62h241.911c19.143 0 34.569 16.020 34.569 35.91v574.461c0 19.692-15.426 35.91-34.56 35.91h-691.372c-18.953 0-34.56-16.218-34.56-35.91v-574.47c0-19.881 15.606-35.91 34.56-35.91h103.707c19.143 0 34.569-16.020 34.569-35.892 0-19.89-15.426-35.91-34.56-35.91h-103.717c-57.231 0-103.68 48.258-103.68 107.712v574.47c-0.007 59.453 46.439 107.712 103.68 107.712h691.38c57.241 0 103.707-48.258 103.707-107.712v-574.47c0-59.453-46.467-107.712-103.707-107.712h-227.862l-93.483-97.29c-6.208-6.521-14.942-10.586-24.627-10.621zM321.245 402.053c-28.62 0-51.858 24.121-51.858 53.856 0 29.727 23.238 53.856 51.858 53.856 28.62 0 51.849-24.128 51.849-53.856s-23.228-53.856-51.849-53.856zM528.65 402.053c-28.62 0-51.849 24.121-51.849 53.856 0 29.727 23.228 53.856 51.849 53.856s51.849-24.128 51.849-53.856-23.22-53.856-51.84-53.856zM736.244 402.053c-28.62 0-51.849 24.121-51.849 53.856 0 29.727 23.228 53.856 51.849 53.856s51.849-24.128 51.849-53.856-23.408-53.856-51.84-53.856z"  horiz-adv-x="1024" />

    
    <glyph glyph-name="beijingyanse" unicode="&#58941;" d="M896 512c-46.72 46.72-160.64 25.6-219.52 10.24L448.64 743.04l-21.76-21.76L313.6 830.72 223.36 743.04 336.64 633.6 66.56 371.84v-2.56L448.64 0l359.68 349.44L960 202.88S960 448 896 512zM194.56 371.84l255.36 247.68 254.72-247.68H194.56z"  horiz-adv-x="1024" />

    
    <glyph glyph-name="tihuantupian" unicode="&#58988;" d="M620.544 758.4c103.936-10.432 187.328-72.96 205.12-180.224h-60.16l97.088-144.448 97.152 144.448h-67.008c-17.792 144.448-127.168 238.336-265.344 251.712-19.136 1.536-36.864-14.848-36.864-35.712 1.28-17.92 13.568-34.24 30.016-35.776z m-150.4 73.024H132.416c-19.136 0-34.176-16.384-34.176-37.248v-321.728c0-20.864 15.04-37.248 34.176-37.248h337.728c19.136 0 34.176 16.384 34.176 37.248V794.176c0 20.864-15.04 37.248-34.176 37.248z m-32.832-324.736H165.248V759.936h272.128v-253.248h-0.064zM404.48 12.16c-116.224 10.432-205.12 87.872-209.216 216h64.256L162.496 372.608l-97.088-144.448h64.256c2.688-165.376 118.912-272.576 268.032-287.488 19.136-1.472 36.928 14.912 36.928 35.776a35.648 35.648 0 0 1-30.144 35.712z m489.6 323.264H556.288c-19.2 0-34.176-16.448-34.176-37.248v-323.264c0-20.8 14.976-37.184 34.176-37.184h337.728c19.136 0 34.112 16.384 34.112 37.184V298.176c0.064 20.8-16.32 37.248-34.048 37.248z m-32.896-324.736H589.12V262.464h272.064v-251.776z"  horiz-adv-x="1024" />

    
    <glyph glyph-name="bianji" unicode="&#58914;" d="M962.70308693 731.94482347c-15.99842987 15.9973376-41.9332096 15.9973376-57.9305472 0L499.2630784 326.45065387c-15.99842987-15.99515307-15.99842987-41.93102507 0-57.92836267 15.99624533-15.99515307 41.9332096-15.99515307 57.92836267 0l405.51164586 405.4941696c15.99624533 15.9973376 15.99624533 41.9332096 0 57.92836267zM812.4792832 296.9780224c-22.41549653 0-40.5897216-18.17094827-40.5897216-40.58753707v-202.9387776c0-22.4165888-18.17204053-40.58753707-40.5897216-40.58753706H203.63782827c-22.41768107 0-40.5897216 18.17094827-40.5897216 40.58753706V702.85339307c0 22.41440427 18.17204053 40.58753707 40.5897216 40.58753706h405.89284693c22.41768107 0 40.5897216 18.17094827 40.5897216 40.58753707 0 22.41440427-18.17204053 40.58753707-40.5897216 40.58753707H163.04810667c-44.8331776 0-81.17835093-36.34408107-81.17835094-81.17398187v-730.57675947c0-44.83099307 36.34517333-81.1761664 81.17835094-81.1761664h608.84036266c44.83426987 0 81.17835093 36.3462656 81.17835094 81.1761664V256.3915776c0 22.4165888-18.17204053 40.58753707-40.5897216 40.58753707z"  horiz-adv-x="1024" />

    
    <glyph glyph-name="-shangbiankuang" unicode="&#58923;" d="M891.733333 230.4a21.333333 21.333333 0 0 1 21.333334 21.333333v68.266667a21.333333 21.333333 0 1 1-42.666667 0v-68.266667a21.333333 21.333333 0 0 1 21.333333-21.333333zM145.066667 149.333333v68.266667a21.333333 21.333333 0 1 1-42.666667 0v-68.266667a21.333333 21.333333 0 1 1 42.666667 0zM891.733333 384a21.333333 21.333333 0 0 1 21.333334 21.333333v68.266667a21.333333 21.333333 0 1 1-42.666667 0v-68.266667a21.333333 21.333333 0 0 1 21.333333-21.333333zM870.4 627.2v-68.266667a21.333333 21.333333 0 1 1 42.666667 0v68.266667a21.333333 21.333333 0 1 1-42.666667 0zM145.066667 456.533333v68.266667a21.333333 21.333333 0 1 1-42.666667 0v-68.266667a21.333333 21.333333 0 1 1 42.666667 0zM891.733333 76.8a21.333333 21.333333 0 0 1 21.333334 21.333333v68.266667a21.333333 21.333333 0 1 1-42.666667 0v-68.266667a21.333333 21.333333 0 0 1 21.333333-21.333333zM145.066667 302.933333v68.266667a21.333333 21.333333 0 1 1-42.666667 0v-68.266667a21.333333 21.333333 0 1 1 42.666667 0zM605.866667-4.266667a21.333333 21.333333 0 0 1-21.333334 21.333334h-68.266666a21.333333 21.333333 0 1 1 0-42.666667h68.266666a21.333333 21.333333 0 0 1 21.333334 21.333333zM759.466667-4.266667a21.333333 21.333333 0 0 1-21.333334 21.333334h-68.266666a21.333333 21.333333 0 1 1 0-42.666667h68.266666a21.333333 21.333333 0 0 1 21.333334 21.333333zM913.066667-4.266667v17.066667a21.333333 21.333333 0 0 1-42.24 4.266667H823.466667a21.333333 21.333333 0 1 1 0-42.666667h68.266666a21.333333 21.333333 0 0 1 21.333334 21.333333zM145.066667-4.266667v68.266667a21.333333 21.333333 0 1 1-42.666667 0v-68.266667a21.333333 21.333333 0 1 1 42.666667 0zM298.666667-4.266667a21.333333 21.333333 0 0 1-21.333334 21.333334h-68.266666a21.333333 21.333333 0 1 1 0-42.666667h68.266666a21.333333 21.333333 0 0 1 21.333334 21.333333zM452.266667-4.266667a21.333333 21.333333 0 0 1-21.333334 21.333334h-68.266666a21.333333 21.333333 0 1 1 0-42.666667h68.266666a21.333333 21.333333 0 0 1 21.333334 21.333333zM913.066667 669.866667v102.4a21.333333 21.333333 0 0 1-21.333334 21.333333h-768a21.333333 21.333333 0 0 1-21.333333-21.333333v-162.133334a21.333333 21.333333 0 1 1 42.666667 0V648.533333h746.666666a21.333333 21.333333 0 0 1 21.333334 21.333334z"  horiz-adv-x="1024" />

    
    <glyph glyph-name="ziliaoshouce-xianxing" unicode="&#59544;" d="M704 704v-384H257.6c-24 0-46.4-6.4-65.6-17.6V639.2c0 36 28.8 64.8 64.8 64.8H704m64 64H256.8C185.6 768 128 710.4 128 639.2v-510.4c0-71.2 57.6-128.8 128.8-128.8H896V704h-64v-640H257.6c-36 0-65.6 29.6-65.6 65.6v60.8c0 36 29.6 65.6 65.6 65.6H768V768z m0-576H256v-64h512v64z"  horiz-adv-x="1024" />

    
    <glyph glyph-name="tuichu" unicode="&#58995;" d="M723.872 417.6l-81.12 81.152 45.248 45.248 158.4-158.4-158.4-158.4-45.248 45.28 81.12 81.12h-339.872v64h339.872zM576 0h-319.808c-0.009-0-0.021-0-0.032-0-35.435 0-64.16 28.725-64.16 64.16 0 0 0 0 0 0l-0 639.68c0 35.424 28.704 64.16 64.192 64.16h319.808v-64h-287.776c-0.076 0.001-0.166 0.001-0.257 0.001-17.577 0-31.841-14.186-31.967-31.733l-0-576.524c0-17.184 14.4-31.744 32.224-31.744h287.776v-64z"  horiz-adv-x="1024" />

    
    <glyph glyph-name="wenbenduiqi" unicode="&#59108;" d="M174.08 670.72c-12.288 0-20.48 8.192-20.48 20.48s8.192 20.48 20.48 20.48h675.84c12.288 0 20.48-8.192 20.48-20.48s-8.192-20.48-20.48-20.48h-675.84z m0-204.8c-12.288 0-20.48 8.192-20.48 20.48s8.192 20.48 20.48 20.48h675.84c12.288 0 20.48-8.192 20.48-20.48s-8.192-20.48-20.48-20.48h-675.84z m0-204.8c-12.288 0-20.48 8.192-20.48 20.48s8.192 20.48 20.48 20.48h675.84c12.288 0 20.48-8.192 20.48-20.48s-8.192-20.48-20.48-20.48h-675.84z m0-204.8c-12.288 0-20.48 8.192-20.48 20.48s8.192 20.48 20.48 20.48h675.84c12.288 0 20.48-8.192 20.48-20.48s-8.192-20.48-20.48-20.48h-675.84z"  horiz-adv-x="1024" />

    
    <glyph glyph-name="shanchu1" unicode="&#58948;" d="M512-1.6c-108 0-209.6 42.4-285.6 118.4-76 76-118.4 177.6-118.4 285.6 0 108 42.4 209.6 118.4 285.6 76 76 177.6 118.4 285.6 118.4 108 0 209.6-42.4 285.6-118.4 157.6-157.6 157.6-413.6 0-571.2-76-76-177.6-118.4-285.6-118.4z m0 760c-95.2 0-184.8-36.8-252-104-67.2-67.2-104-156.8-104-252s36.8-184.8 104-252c67.2-67.2 156.8-104 252-104 95.2 0 184.8 36.8 252 104 139.2 139.2 139.2 364.8 0 504-67.2 67.2-156.8 104-252 104zM707.872 566.608L348.096 206.84l-31.68 31.68 359.776 359.768zM328 555.2l32 31.2 348-348-32-32z"  horiz-adv-x="1024" />

    
    <glyph glyph-name="sousuo2" unicode="&#59224;" d="M474.49999971 83.99249970999995c-186.11250029 0-337.5 151.38749971-337.5 337.5s151.38749971 337.5 337.5 337.5 337.5-151.38749971 337.5-337.5-151.38749971-337.5-337.5-337.5m476.55-86.02499971L791.45 157.60500000000002c59.625 71.51249971 95.55000029 163.50000029 95.55000029 263.88749971 0 227.8125-184.68749971 412.49999971-412.50000058 412.50000058s-412.49999971-184.68749971-412.49999971-412.50000058 184.68749971-412.49999971 412.49999971-412.49999971c100.38750029 0 192.375 35.92500029 263.88750058 95.55000029l159.6375-159.60000058a37.5975 37.5975 0 0 1 53.02499942 0 37.5975 37.5975 0 0 1 0 53.02500029"  horiz-adv-x="1024" />

    
    <glyph glyph-name="keyboard_icon" unicode="&#58994;" d="M928.67 689.56h-833.34c-46.005-0.051-83.285-37.334-83.33-83.336l-0-444.444c0.051-46.001 37.329-83.279 83.325-83.33l833.345-0c46.001 0.051 83.279 37.329 83.33 83.325l0 444.445c-0.046 46.006-37.325 83.289-83.325 83.34zM956.45 161.78c-0.011-15.338-12.442-27.769-27.779-27.78l-833.341-0c-15.338 0.011-27.769 12.442-27.78 27.779l-0 444.441c0.011 15.338 12.442 27.769 27.779 27.78l833.341 0c15.338-0.011 27.769-12.442 27.78-27.779zM845.33 272.89h-666.66c-15.342-0-27.78-12.438-27.78-27.78 0-15.342 12.438-27.78 27.78-27.78h666.66c15.342 0 27.78 12.438 27.78 27.78 0 15.342-12.438 27.78-27.78 27.78zM178.67 356.22h83.33c15.342 0 27.78 12.438 27.78 27.78s-12.438 27.78-27.78 27.78l-83.33 0c-15.342-0-27.78-12.438-27.78-27.78s12.438-27.78 27.78-27.78zM373.11 356.22h83.33c15.342 0 27.78 12.438 27.78 27.78s-12.438 27.78-27.78 27.78l-83.33 0c-15.342-0-27.78-12.438-27.78-27.78s12.438-27.78 27.78-27.78zM567.56 356.22h83.33c15.342 0 27.78 12.438 27.78 27.78s-12.438 27.78-27.78 27.78l-83.33 0c-15.342-0-27.78-12.438-27.78-27.78s12.438-27.78 27.78-27.78zM845.33 411.78h-83.33c-0 0-0 0-0 0-15.342 0-27.78-12.438-27.78-27.78 0-15.342 12.438-27.78 27.78-27.78 0 0 0 0 0 0h83.33c15.342 0 27.78 12.438 27.78 27.78s-12.438 27.78-27.78 27.78zM178.67 495.11h83.33c15.342 0 27.78 12.438 27.78 27.78s-12.438 27.78-27.78 27.78l-83.33 0c-15.342-0-27.78-12.438-27.78-27.78s12.438-27.78 27.78-27.78zM373.11 495.11h83.33c15.342 0 27.78 12.438 27.78 27.78s-12.438 27.78-27.78 27.78l-83.33 0c-15.342-0-27.78-12.438-27.78-27.78s12.438-27.78 27.78-27.78zM567.56 495.11h83.33c15.342 0 27.78 12.438 27.78 27.78s-12.438 27.78-27.78 27.78l-83.33 0c-15.342-0-27.78-12.438-27.78-27.78s12.438-27.78 27.78-27.78zM845.33 550.67h-83.33c-15.342-0-27.78-12.438-27.78-27.78s12.438-27.78 27.78-27.78h83.33c15.342 0 27.78 12.438 27.78 27.78s-12.438 27.78-27.78 27.78z"  horiz-adv-x="1024" />

    
    <glyph glyph-name="xing" unicode="&#58928;" d="M751.202 257.617s83.744-276.374 43.306-316.813c-40.439-40.439-281.404 135.595-281.404 135.595S268.805-99.634 228.366-59.195c-40.439 40.439 46.638 316.813 46.638 316.813S26.173 466.507 66.612 506.946s299.339 43.916 299.339 43.916S474.334 830.414 513.103 830.435c38.773 0.02 147.152-279.573 147.152-279.573s255.568-3.478 296.007-43.916-205.06-249.329-205.06-249.329z m-128.559 208.89c-40.439 40.439-93.514 242.632-111.206 242.632S440.669 506.946 400.23 466.507c0 0-212.303 0-212.303-20.219s161.755-101.097 161.755-161.755-60.658-222.413-40.439-242.632c20.219-20.219 142.797 121.316 202.193 121.316 59.392 0 181.974-141.535 202.193-121.316 20.219 20.219-40.439 181.974-40.439 242.632 0 60.658 161.755 141.535 161.755 161.755 0.001 20.219-212.302 20.219-212.302 20.219z"  horiz-adv-x="1024" />

    
    <glyph glyph-name="jiantou-copy-copy" unicode="&#58943;" d="M796.014 483.353l-257.492 257.492c-20.11 20.11-52.709 20.11-72.819 0l-257.492-257.492c-20.11-20.11-20.11-52.709 0-72.819s52.709-20.11 72.819 0l169.585 169.585v-493.664c0-28.453 23.046-51.499 51.499-51.499s51.499 23.046 51.499 51.499v493.664l169.585-169.585c10.042-10.043 23.226-15.089 36.41-15.089s26.367 5.021 36.41 15.089c20.11 20.11 20.11 52.709 0 72.819z"  horiz-adv-x="1000" />

    
    <glyph glyph-name="dingceng" unicode="&#58952;" d="M972.2255846659343 326.41421699523926a31.086759567260742 31.086759567260742 0 0 1-24.758634567260742 21.277856826782227l-107.73648262023924 17.719058990478516 123.87273788452146 112.40301132202146c8.701171874999998 7.91015625 12.023591995239258 19.854955673217773 8.622379302978517 30.849609374999993a31.00719451904297 31.00719451904297 0 0 1-24.758634567260742 21.278629302978516l-107.81527519226076 17.719058990478516 123.95153045654297 112.40301132202146c8.701171874999998 7.91015625 12.023591995239258 19.933748245239258 8.622379302978517 30.928401947021484a31.086759567260742 31.086759567260742 0 0 1-24.83819961547852 21.278629302978516L544.5240542093914 778.6380043029785a32.27405548095703 32.27405548095703 0 0 1-24.363126754760746-5.853824615478516L171.7965647379558 513.8849201202393a29.741878509521488 29.741878509521488 0 0 1-11.627311706542969-30.138158798217773c2.3730468749999996-11.390161514282225 11.311368942260742-20.486841201782227 22.939453125-23.3349609375l121.18297576904297-30.37453651428222L171.7965647379558 331.55581855773926a29.741878509521488 29.741878509521488 0 0 1-11.627311706542969-30.138158798217773c2.3730468749999996-11.390161514282225 11.231803894042969-20.408048629760746 22.939453125-23.3349609375l121.10418319702148-30.37453651428222L171.7965647379558 149.22671699523926a29.741878509521488 29.741878509521488 0 0 1-11.627311706542969-30.058593749999993 30.849609374999993 30.849609374999993 0 0 1 22.939453125-23.413753509521484l422.40234374999994-105.75971603393555a31.798982620239258 31.798982620239258 0 0 1 29.267578124999996 7.277498245239258l328.8245773315429 298.212890625c8.701171874999998 7.91015625 12.023591995239258 19.854955673217773 8.622379302978517 30.849609374999993zM381.3369127909342 410.7354011535645l224.17413711547852-56.24090194702148a32.0361328125 32.0361328125 0 0 1 29.267578124999996 7.276725769042969L782.2227045694988 495.45518302917486l92.31167793273927-15.187654495239258-270.0530433654785-244.97769355773926-343.45836639404297 86.06234550476074 120.23437499999997 89.384765625z m223.22476387023926-357.77621269226074L261.0237452189127 139.02230644226074 381.2581202189127 228.40784454345703l224.3317222595215-56.162109375a31.798982620239258 31.798982620239258 0 0 1 29.267578124999996 7.277498245239258l147.3660564422607 133.68164062500003 92.39047050476074-15.186882019042969-270.0522708892822-245.05725860595703zM1110.890469233195 554.4638671875L955.8521792093912 354.3369140625h103.38589668273924v-15.029296874999996c0-105.12628555297853-36.22913360595703-200.126953125-93.02312850952147-280.17711639404297 113.66832733154295 55.054378509521484 191.10906600952146 165.08434295654294 196.25066757202148 295.1276206970215h103.38589668273924L1110.810904184977 554.3850746154785z"  horiz-adv-x="1434" />

    
    <glyph glyph-name="diceng" unicode="&#58953;" d="M935.3610026041667 347.6132812499999l-102.83203125000001 17.797851562499996 118.25683593749999 112.32421875a30.612459182739258 30.612459182739258 0 0 1 8.226871490478516 30.849609374999993 30.216951370239258 30.216951370239258 0 0 1-23.730468749999996 21.199064254760742l-102.83203125000001 17.639493942260746 118.33562850952148 112.32421875a30.612459182739258 30.612459182739258 0 0 1 8.226871490478516 30.92917442321778 30.216951370239258 30.216951370239258 0 0 1-23.730468749999996 21.199064254760742L550.5319010416667 778.3212890625a29.82144355773925 29.82144355773925 0 0 1-23.3349609375-5.932617187499999L194.57486979166669 513.7265624999999a30.612459182739258 30.612459182739258 0 0 1 10.757503509521486-53.47234725952148l115.72620391845705-30.29651641845703L194.57486979166669 331.55659103393555a30.53289413452149 30.53289413452149 0 0 1 10.757503509521486-53.47311973571778L321.13736979166663 247.70816230773926 194.57486979166669 149.30550956726074a30.53289413452149 30.53289413452149 0 0 1 10.757503509521486-53.393554687500014l314.66663360595703-82.50277519226076 88.90969276428221-23.3349609375a29.82144355773925 29.82144355773925 0 0 1 28.002262115478516 7.1979331970214835l314.033203125 298.212890625a30.849609374999993 30.849609374999993 0 0 1 8.147306442260744 30.92917442321778 30.058593749999993 30.058593749999993 0 0 1-23.730468749999996 21.199064254760742zM553.3004557291667 716.2265625l312.45117187500006-53.7890625-257.9498863220214-244.97769355773926-328.113899230957 86.06234550476074L553.3792483011882 716.3053550720215zM394.5434652964274 410.6573810577393l214.20764923095703-56.162109375a29.82144355773925 29.82144355773925 0 0 1 28.00148963928223 7.1979331970214835L777.5533854166667 495.3756179809571l88.2770347595215-15.186882019042969L607.8805338541667 235.2882900238037 279.7674070994059 321.35140800476086l114.77605819702147 89.30597305297852zM1155.6588541666667 259.3362464904785a342.8264808654786 342.8264808654786 0 0 1-187.47070312499997 295.048828125c54.26336288452147-80.05170822143553 88.83090019226076-175.05237579345703 88.83090019226076-280.01953124999994v-15.029296874999996h-98.71859550476074l147.99871444702148-199.96936798095703 148.07827949523926 199.96936798095703H1155.6588541666667z"  horiz-adv-x="1438" />

    
    <glyph glyph-name="wenben" unicode="&#58959;" d="M692.2597343921661 13.21142578125H331.711297750473v30.689996480941772a563.3140236139297 563.3140236139297 0 0 0 48.088091611862176 14.83154296875c16.200274229049683 4.278552532196046 33.656305074691765 7.757592201232912 52.39561200141907 10.638445615768433v630.340576171875h-136.73552870750427l-57.244107127189636-151.53810381889343H211.2339789867401c-2.1675199270248413 14.118209481239319-3.9642512798309326 30.233752727508545-5.419161915779114 48.23148250579833-1.4541864395141602 17.939794063568115-2.6809751987457275 36.30831241607666-3.7933409214019784 55.10410666465761-1.1123657226562498 18.59736442565918-1.9683659076690674 37.078857421875-2.6527315378189087 55.019375681877136C198.6264432668686 724.469366312027 198.2563788890838 740.6413968801498 198.2563788890838 754.78857421875h627.4886906147003c0-14.147177338600159-0.3997564315795899-30.090361833572388-1.1123657226562498-47.689059376716614-0.7415771484374999-17.655909061431885-1.6547888517379765-35.852792859077454-2.766430377960205-54.56313192844391s-2.139276266098023-37.078857421875-3.251641988754273-55.10410666465761c-1.0841220617294314-17.998453974723816-2.7099430561065674-34.48406159877777-4.9064308404922485-49.28736090660096h-28.408053517341607l-56.75889551639557 151.53810381889343H592.8891206979752V69.31492352485657c18.71033906936645-3.5659432411193848 36.22285723686218-7.07395076751709 52.366644144058235-10.638445615768433 16.229242086410522-3.508731722831726 31.85957372188568-8.415162563323973 47.00469374656678-14.83154296875v-30.633509159088135z"  horiz-adv-x="1024" />

    
    <glyph glyph-name="xiantiaoyanse" unicode="&#58956;" d="M555.7553691864015 377.95691871643066c-24.1823673248291 10.243806838989258-46.07975006103515-0.5453681945800781-56.134300231933594-12.246065139770506-10.052232742309569-11.700696945190431-14.887933731079098-36.440792083740234-25.117063522338867-60.26318550109865-10.229129791259767-23.823938369750977-46.713953018188484-70.20881652832033-46.713953018188484-70.20881652832033s42.05746650695801 2.160615921020508 64.27001953125 7.094421386718748c40.60521125793456 9.023294448852537 69.26794052124023 30.342864990234375 79.40746307373048 48.10209274291993s9.163112640380861 40.338706970214844 9.163112640380861 40.338706970214844 2.899103164672852 35.427303314208984-24.87527847290039 47.18284606933593zM591.5225620269775 465.1161804199219l66.13168716430664-57.75186538696289-65.62648773193361-49.608421325683594-42.479238510131836 42.21350669860839zM882.3250885009766 749.8648109436035c-14.024305343627933 10.553569793701174-146.20116233825684-104.2433452606201-175.12807846069336-134.20460700988767-34.9530029296875-36.200551986694336-111.68460845947267-138.75603675842285-111.68460845947267-138.75603675842285l72.60890007019044-61.57793998718263s75.47555923461915 68.1748867034912 125.70196151733398 138.31572532653811c44.9820613861084 62.82548904418945 102.52690315246582 185.66851615905762 88.50259780883789 196.22285842895508zM136.6561336517334 201.23135948181164h748.8631439208983v-185.65692901611328H136.6561336517334v185.65692901611328zM136.6561336517334 384H402.63282012939453v-153.70113372802734H136.6561336517334V384z"  horiz-adv-x="1024" />

    
    <glyph glyph-name="wushuju" unicode="&#58974;" d="M156.662278 196.241827h21.097186A10.444152 10.444152 0 0 0 187.994733 185.797675c0-5.765172-4.490985-10.444152-10.235269-10.444152H156.662278v-21.097186A10.444152 10.444152 0 0 0 146.218126 144.021068a10.277045 10.277045 0 0 0-10.444152 10.235269V175.353523H114.676787A10.444152 10.444152 0 0 0 104.441518 185.797675c0 5.765172 4.490985 10.444152 10.235269 10.444152H135.773974v21.097187A10.444152 10.444152 0 0 0 146.218126 227.574283c5.765172 0 10.444152-4.490985 10.444152-10.235269v-21.097187z m1378.628042 83.553215v21.097186A10.277045 10.277045 0 0 1 1524.846168 311.127497a10.444152 10.444152 0 0 1-10.444152-10.235269v-21.097186h-21.097186a10.277045 10.277045 0 0 1-10.235269-10.444152c0-5.598065 4.595427-10.444152 10.235269-10.444152h21.097186v-21.097187c0-5.744284 4.67898-10.235269 10.444152-10.235268a10.444152 10.444152 0 0 1 10.444152 10.235268V258.906738h21.097187c5.744284 0 10.235269 4.67898 10.235268 10.444152a10.444152 10.444152 0 0 1-10.235268 10.444152H1535.29032zM776.460024-64.861969H250.596979A20.80475 20.80475 0 0 0 229.77134-43.973665c0 11.530344 9.462402 20.888304 20.825639 20.888303h94.728457A83.010119 83.010119 0 0 0 334.212859 18.586804v605.96969A83.49055 83.49055 0 0 0 417.849627 708.005267H480.430984V728.998012A83.49055 83.49055 0 0 0 564.067752 812.446785h501.152182A83.448773 83.448773 0 0 0 1148.856702 728.998012v-605.969689c0-15.185797-4.052331-29.410732-11.133466-41.672166h115.554096c11.551232 0 20.909192-9.274407 20.909192-20.888304 0-11.530344-9.295295-20.888304-20.888304-20.888304H1002.638576v-20.992745c0-15.185797-4.052331-29.410732-11.133466-41.672166h11.196131c11.488567 0 20.825639-9.274407 20.825639-20.888303 0-11.530344-9.462402-20.888304-20.825639-20.888304h-109.893365c9.545955-16.000441 7.478013-36.972297-6.41271-50.863019a41.672166 41.672166 0 0 0-59.072122 0L776.460024-64.861969z m76.367638 41.776607h66.424806c22.977134 0 41.609501 18.59059 41.609501 41.881049V625.538244c0 22.559368-18.047494 40.690416-40.314426 40.690416H416.303892c-22.266932 0-40.314426-18.214601-40.314426-40.690416v-606.742557c0-23.123352 18.799473-41.881049 41.588613-41.881049h317.084449l-10.736588 10.757477a41.693054 41.693054 0 0 0-10.861918 40.377091l-19.718558 19.739447A146.259902 146.259902 0 0 0 502.363703 268.306475a146.218126 146.218126 0 0 0 220.517822-190.981761l19.739447-19.739447a41.630389 41.630389 0 0 0 40.377091-10.841029L852.827662-23.085362zM1002.638576 81.356157h62.852906A41.797496 41.797496 0 0 1 1107.080095 123.132764V728.893571c0 23.14424-18.632367 41.776607-41.588613 41.776607H563.775316A41.797496 41.797496 0 0 1 522.207592 728.893571v-20.888304h396.794216A83.448773 83.448773 0 0 0 1002.638576 624.556494V81.356157zM266.325872 849.001317h31.123572c8.773088 0 15.875111-6.955805 15.875111-15.666228 0-8.647758-7.102023-15.666228-15.875111-15.666228h-31.123572v-31.123572c0-8.773088-6.955805-15.875111-15.666228-15.875111a15.770669 15.770669 0 0 0-15.666228 15.875111V817.668861H203.869844A15.728893 15.728893 0 0 0 187.994733 833.335089c0 8.647758 7.102023 15.666228 15.875111 15.666228h31.123572V880.124889c0 8.773088 6.955805 15.875111 15.666228 15.875111 8.647758 0 15.666228-7.102023 15.666228-15.875111v-31.123572zM20.888304-43.973665c0 11.530344 9.462402 20.888304 20.825638 20.888303h125.455152c11.488567 0 20.825639-9.274407 20.825639-20.888303 0-11.530344-9.462402-20.888304-20.825639-20.888304H41.713942A20.80475 20.80475 0 0 0 20.888304-43.973665z m658.733544 135.021995a104.441518 104.441518 0 1 1-147.722083 147.722083 104.441518 104.441518 0 0 1 147.722083-147.722083zM459.542681 582.675445a20.888304 20.888304 0 0 0 20.867415 20.888304H710.202325a20.888304 20.888304 0 1 0 0-41.776608H480.430984A20.825639 20.825639 0 0 0 459.542681 582.675445z m0-104.441518c0 11.530344 9.295295 20.888304 20.742085 20.888303h334.505295c11.44679 0 20.742086-9.274407 20.742086-20.888303 0-11.530344-9.295295-20.888304-20.742086-20.888304H480.284766A20.762974 20.762974 0 0 0 459.542681 478.233927z m0-104.441519c0 11.530344 9.316183 20.888304 20.846527 20.888304h146.301679c11.509455 0 20.846527-9.274407 20.846527-20.888304 0-11.530344-9.316183-20.888304-20.846527-20.888303h-146.301679A20.80475 20.80475 0 0 0 459.542681 373.792408zM62.664911 499.12223a62.664911 62.664911 0 1 0 0 125.329822 62.664911 62.664911 0 0 0 0-125.329822z m0 31.332456a31.332456 31.332456 0 1 1 0 62.664911 31.332456 31.332456 0 0 1 0-62.664911zM1357.739739 624.452052a62.664911 62.664911 0 1 0 0 125.329822 62.664911 62.664911 0 0 0 0-125.329822z m0 31.332456a31.332456 31.332456 0 1 1 0 62.664911 31.332456 31.332456 0 0 1 0-62.664911z"  horiz-adv-x="1567" />

    
    <glyph glyph-name="lishi" unicode="&#58896;" d="M839.104 703.04A460.48 460.48 0 0 1 511.488 838.784a460.352 460.352 0 0 1-327.68-135.744 460.352 460.352 0 0 1-135.744-327.68c0-90.176 25.92-177.6 74.944-252.8a32.192 32.192 0 1 1 53.952 35.2 397.824 397.824 0 0 0-64.512 217.6A399.36 399.36 0 0 0 511.36 774.208c219.968 0 398.848-178.944 398.848-398.848s-178.944-398.848-398.848-398.848a398.08 398.08 0 0 0-206.08 57.28 32.256 32.256 0 0 1-33.408-55.168 462.208 462.208 0 0 1 239.424-66.56 460.288 460.288 0 0 1 327.616 135.68c87.488 87.552 135.744 203.968 135.744 327.68s-48 240.064-135.552 327.616z m-345.472-10.496a40.768 40.768 0 0 1-40.768-40.832v-293.504c0-1.408 0.384-2.816 0.512-4.16a40.32 40.32 0 0 1 40.768-35.84l0.128 0.896h231.488a40.832 40.832 0 1 1 0 81.6H534.464V651.712a40.832 40.832 0 0 1-40.832 40.832z m0 0"  horiz-adv-x="1024" />

    
    <glyph glyph-name="shezhi2" unicode="&#58901;" d="M942.226286 307.80952367a196.827429 196.827429 0 0 1-181.76-196.315428c0-29.696 9.728-58.441143 14.555428-70.729143l-113.078857-62.464a349.184 349.184 0 0 1-44.178286 38.985143c-38.4 28.525714-75.117714 42.934857-109.202285 42.934857-33.792 0-70.217143-14.189714-108.470857-42.130286a352.109714 352.109714 0 0 1-43.885715-38.326857l-108.909714 60.928c4.827429 12.288 14.628571 41.033143 14.628571 70.802286A196.754286 196.754286 0 0 1 80.091429 307.80952367 546.011429 546.011429 0 0 0 71.68 388.70552367c0 29.037714 5.851429 66.340571 8.411429 80.896A196.827429 196.827429 0 0 1 261.851429 665.99009567c0 29.622857-9.728 58.294857-14.482286 70.656l115.858286 63.634285c4.096-4.242286 20.772571-20.772571 43.958857-37.302857 37.668571-26.843429 73.508571-40.448 106.642285-40.448 32.768 0 68.315429 13.312 105.764572 39.643429 22.820571 16.091429 39.497143 32.402286 43.666286 36.571428h0.073142l111.689143-62.025143a207.945143 207.945143 0 0 1-14.628571-70.729142 196.827429 196.827429 0 0 1 181.76-196.388572c2.56-14.628571 8.411429-52.077714 8.411428-80.896 0-28.891429-5.851429-66.267429-8.338285-80.896m69.485714 181.028572c-6.070857 31.670857-25.234286 51.931429-49.078857 51.931428h-5.266286a125.293714 125.293714 0 0 0-125.074286 125.220572c0 22.235429 10.752 47.469714 10.825143 47.689142a65.682286 65.682286 0 0 1-22.089143 79.36L692.443429 864.71923767 691.053714 865.15809567a72.557714 72.557714 0 0 1-78.409143-15.652572c-13.897143-14.336-61.952-55.296-98.816-55.296-37.302857 0-85.577143 41.764571-99.547428 56.393143A72.630857 72.630857 0 0 1 335.945143 866.91352367l-132.681143-72.630857-1.828571-1.243429A65.536 65.536 0 0 1 179.2 713.75238067c0.073143-0.219429 10.971429-25.234286 10.971429-47.762285 0-69.046857-56.246857-125.220571-125.220572-125.220572H60.708571c-24.356571 0.512-43.958857-19.748571-50.029714-51.931428C10.24 486.57066667 0 432.00609567 0 388.70552367c0-43.154286 10.24-97.792 10.678857-100.132571 5.997714-31.524571 25.234286-51.931429 49.005714-51.931429h5.266286c68.973714 0 125.147429-56.173714 125.147429-125.147428 0-22.381714-10.825143-47.542857-10.898286-47.762286a65.755429 65.755429 0 0 1 22.089143-79.36l126.171428-70.729143 1.316572-0.512a71.460571 71.460571 0 0 1 78.774857 16.457143c17.554286 19.236571 65.536 58.88 100.937143 58.88 38.326857 0 87.552-44.470857 101.741714-59.977143a71.314286 71.314286 0 0 1 78.628572-17.115429l130.267428 71.826286 1.828572 1.170286a65.609143 65.609143 0 0 1 22.162285 79.286857c-0.073143 0.292571-10.898286 25.234286-10.898285 47.835429 0 68.973714 56.173714 125.147429 125.220571 125.147428h4.242286c24.210286-0.365714 43.885714 19.894857 49.956571 51.931429 0.438857 2.340571 10.678857 56.905143 10.678857 100.205714 0 43.154286-10.24 97.792-10.678857 100.059429M500.809143 289.52380967c-59.245714 0-107.52 48.274286-107.52 107.52 0 59.318857 48.274286 107.52 107.52 107.52 59.318857 0 107.52-48.201143 107.52-107.52 0-59.245714-48.201143-107.52-107.52-107.52m0 285.696a178.322286 178.322286 0 0 1-178.102857-178.102857 178.322286 178.322286 0 0 1 178.102857-178.176A178.322286 178.322286 0 0 1 678.985143 397.04380967a178.322286 178.322286 0 0 1-178.176 178.102857"  horiz-adv-x="1024" />

    
    <glyph glyph-name="daohang" unicode="&#58897;" d="M512-128C229.248-128 0 101.248 0 384S229.248 896 512 896s512-229.248 512-512-229.248-512-512-512z m0 938.666667C276.352 810.666667 85.333333 619.648 85.333333 384s191.018667-426.666667 426.666667-426.666667 426.666667 191.018667 426.666667 426.666667S747.648 810.666667 512 810.666667z m-35.029333-462.250667l-306.602667 48.768 598.144 243.114667-242.944-597.589334-48.597333 305.706667z"  horiz-adv-x="1024" />

    
    <glyph glyph-name="bangzhu1" unicode="&#58921;" d="M512-81.85173333c-257.2288 0-465.85173333 209.16906667-465.85173333 465.85173333 0 257.2288 209.16906667 465.85173333 465.85173333 465.85173333S977.85173333 640.68266667 977.85173333 384c0-257.2288-208.62293333-465.85173333-465.85173333-465.85173333z m0 866.16746666c-220.63786667 0-400.31573333-179.67786667-400.31573333-400.31573333s179.67786667-400.31573333 400.31573333-400.31573333 400.31573333 179.67786667 400.31573333 400.31573333-179.67786667 400.31573333-400.31573333 400.31573333zM670.37866667 497.59573333c0-26.76053333-6.00746667-50.7904-18.56853334-73.18186666-12.01493333-22.39146667-28.39893333-42.05226667-49.152-57.89013334-20.20693333-16.384-34.4064-32.768-42.5984-49.152s-12.01493333-27.30666667-12.01493333-33.86026666c0-12.01493333-9.8304-21.2992-21.2992-21.2992h-12.01493333c-12.01493333 0-21.2992 9.8304-21.2992 21.2992v9.28426666c0 18.56853333 4.36906667 36.0448 13.65333333 53.52106667 9.28426667 17.47626667 25.12213333 36.0448 47.5136 56.79786667 16.384 14.19946667 27.30666667 28.94506667 33.86026667 44.2368 6.00746667 15.29173333 9.28426667 30.03733333 9.28426666 44.2368 0 26.2144-6.00746667 46.42133333-18.56853333 59.52853333-12.01493333 13.1072-29.4912 19.6608-51.88266667 19.6608s-41.50613333-8.73813333-56.79786666-26.2144c-12.56106667-14.19946667-20.20693333-35.49866667-22.39146667-64.44373333-1.09226667-10.92266667-10.37653333-19.6608-21.2992-19.6608h-26.76053333c-12.56106667 0-22.9376 10.92266667-21.2992 23.48373333 4.9152 45.32906667 19.6608 79.73546667 44.2368 103.2192 28.39893333 27.30666667 63.35146667 41.50613333 103.76533333 41.50613333 44.78293333 0 79.73546667-12.01493333 105.40373333-36.59093333 25.12213333-24.576 38.22933333-55.7056 38.22933334-94.48106667z m-150.18666667-383.3856c-22.39146667 0-40.96 18.0224-40.96 40.96v7.64586667c0 22.39146667 18.0224 40.96 40.96 40.96 22.39146667 0 40.96-18.0224 40.96-40.96v-7.64586667c0-22.9376-18.0224-40.96-40.96-40.96z"  horiz-adv-x="1024" />

    
    <glyph glyph-name="youxiajiao" unicode="&#59270;" d="M800 140.8l-572.8 572.8c-12.8 12.8-32 12.8-44.8 0-12.8-12.8-12.8-32 0-44.8l572.8-572.8h-435.2c-19.2 0-32-12.8-32-32s12.8-32 32-32h480c35.2 0 64 28.8 64 64v480c0 19.2-12.8 32-32 32s-32-12.8-32-32v-435.2z"  horiz-adv-x="1024" />

    
    <glyph glyph-name="gantanhao" unicode="&#58882;" d="M512 839.111c-250.311 0-455.111-204.8-455.111-455.111S261.689-71.111 512-71.111 967.111 133.689 967.111 384 762.311 839.111 512 839.111m0-853.333c-221.867 0-398.222 176.355-398.222 398.222S290.133 782.222 512 782.222 910.222 605.867 910.222 384 733.867-14.222 512-14.222M512 213.333c-17.067 0-28.444-5.689-39.822-17.066-11.378-11.378-17.067-22.756-17.067-39.823 0-17.066 5.689-28.444 17.067-39.822 11.378-11.378 22.755-17.066 39.822-17.066 17.067 0 28.444 5.688 39.822 17.066C563.2 128 568.89 139.378 568.89 156.444c0 17.067-5.689 28.445-17.067 39.823-11.378 11.377-22.755 17.066-39.822 17.066z m-51.2 455.111l17.067-409.6h62.577l22.756 409.6H460.8z"  horiz-adv-x="1024" />

    
    <glyph glyph-name="liebiao" unicode="&#58880;" d="M341.333 725.333h568.89v-113.777h-568.89z m-227.555 0h113.778v-113.777H113.778z m0-284.444h113.778V327.11H113.778z m0-284.445h113.778v-113.777H113.778z m227.555 0h568.89v-113.777h-568.89z m0 284.445h568.89V327.11h-568.89z"  horiz-adv-x="1024" />

    
    <glyph glyph-name="rizhi" unicode="&#58881;" d="M568.889-14.222h-512V782.222h739.555V384h-56.888V725.333H113.778v-682.666H512zM711.111 384c108.089 0 199.111-91.022 199.111-199.111S819.2-14.222 711.112-14.222 512 76.8 512 184.888 603.022 384 711.111 384m0 56.889c-142.222 0-256-113.778-256-256s113.778-256 256-256 256 113.778 256 256-113.778 256-256 256zM227.556 839.11h56.888v-170.667h-56.888z m341.333 0h56.889v-170.667h-56.89zM170.667 554.667h512v-56.89h-512z m0-170.667H455.11v-56.889H170.667z m0-170.667h227.555v-56.889H170.667zM853.333 99.556H682.667V327.11h56.889v-170.667h113.777z"  horiz-adv-x="1024" />

    
    <glyph glyph-name="lajitong1" unicode="&#58918;" d="M608 128c-17.696 0-32 14.304-32 32V512c0 17.696 14.304 32 32 32s32-14.304 32-32v-352c0-17.696-14.304-32-32-32z m-192 0c-17.696 0-32 14.304-32 32V512c0 17.696 14.304 32 32 32s32-14.304 32-32v-352c0-17.696-14.304-32-32-32z m512 544H768v64c0 52.928-42.72 96-95.264 96H352c-52.928 0-96-43.072-96-96v-64H96c-17.696 0-32-14.304-32-32s14.304-32 32-32h832c17.696 0 32 14.304 32 32s-14.304 32-32 32z m-608 64c0 17.632 14.368 32 32 32h320.736C690.272 768 704 753.952 704 736v-64H320v64z m416.128-800H288.064c-52.928 0-96 43.072-96 96V512.48c0 17.664 14.336 32 32 32s32-14.336 32-32V32c0-17.664 14.368-32 32-32h448.064c17.664 0 32 14.336 32 32V511.168c0 17.664 14.304 32 32 32s32-14.336 32-32V32c0-52.928-43.072-96-96-96z"  horiz-adv-x="1024" />

    
    <glyph glyph-name="dingwei" unicode="&#59233;" d="M480 1.3120000000000118V160a32 32 0 0 0 64 0v-158.688c186.56 15.392 335.296 164.16 350.688 350.688H736a32 32 0 0 0 0 64h158.688C879.296 602.56 730.528 751.296 544 766.688V608a32 32 0 0 0-64 0V766.688C293.44 751.296 144.704 602.528 129.312 416H288a32 32 0 0 0 0-64H129.312C144.704 165.44000000000005 293.472 16.70399999999995 480 1.3120000000000118zM512-64C264.576-64 64 136.57600000000002 64 384S264.576 832 512 832s448-200.576 448-448-200.576-448-448-448z"  horiz-adv-x="1024" />

    
    <glyph glyph-name="suoxiao" unicode="&#58900;" d="M946.9-1.7L744 200.8c24.4 29.2 44.2 61.7 59.1 97 20.2 47.7 30.4 98.3 30.4 150.5s-10.2 102.8-30.4 150.5c-19.5 46-47.3 87.4-82.8 122.9s-76.8 63.4-122.8 82.8c-47.7 20.2-98.3 30.4-150.4 30.4S344.4 824.7 296.8 804.5c-46-19.5-87.3-47.4-122.8-82.8-35.5-35.5-63.3-76.8-82.8-122.9-20.2-47.7-30.4-98.3-30.4-150.5S71 345.5 91.2 297.8c19.5-46 47.3-87.4 82.8-122.9s76.8-63.4 122.8-82.8c47.7-20.2 98.3-30.4 150.4-30.4s102.7 10.2 150.4 30.4c34.9 14.8 67.1 34.4 96.1 58.5l203-202.6c6.9-6.9 16-10.4 25.1-10.4 9.1 0 18.2 3.5 25.2 10.5 13.8 13.8 13.8 36.3-0.1 50.2zM447.2 132.8c-84.2 0-163.3 32.8-222.8 92.4C164.8 284.8 132 364 132 448.3c0 84.3 32.8 163.5 92.3 223.1 59.5 59.6 138.7 92.4 222.8 92.4s163.3-32.8 222.8-92.4c59.5-59.6 92.3-138.8 92.3-223.1 0-83.9-32.5-162.8-91.6-222.3-0.4-0.4-0.8-0.8-1.2-1.1-0.3-0.3-0.6-0.6-0.8-0.9-59.3-58.9-137.9-91.2-221.4-91.2zM574 480H303.7c-19.7 0-35.6-12.8-35.6-32.5S284 415 303.7 415H574c19.7 0 35.6 12.8 35.6 32.5S593.7 480 574 480z"  horiz-adv-x="1024" />

    
    <glyph glyph-name="fangda" unicode="&#58915;" d="M943.8 3.5l-201.4 201c24.2 29 43.9 61.3 58.7 96.3 20 47.3 30.1 97.6 30.1 149.4s-10.1 102-30.1 149.4c-19.3 45.7-47 86.7-82.1 122-35.2 35.2-76.2 62.9-121.9 82.2-47.3 20-97.5 30.2-149.3 30.2-51.8 0-102-10.2-149.3-30.2-45.7-19.3-86.7-47-121.9-82.2s-62.8-76.3-82.1-122c-20-47.3-30.1-97.6-30.1-149.4s10.1-102 30.1-149.4c19.3-45.7 47-86.7 82.1-122 35.2-35.2 76.2-62.9 121.9-82.2 47.3-20 97.5-30.2 149.3-30.2 51.7 0 102 10.2 149.3 30.2 34.6 14.7 66.6 34.1 95.3 58l201.5-201c6.9-6.9 15.9-10.3 24.9-10.3 9.1 0 18.1 3.5 25 10.4 13.8 13.7 13.8 36.1 0 49.8zM669.7 229.4c-0.4-0.4-0.8-0.7-1.2-1.1-0.3-0.3-0.6-0.6-0.8-0.9-59-58.3-137-90.4-219.9-90.4-83.5 0-162.1 32.6-221.2 91.7-59.1 59.1-91.6 137.8-91.6 221.4s32.5 162.3 91.6 221.4c59.1 59.1 137.6 91.7 221.2 91.7s162.1-32.6 221.2-91.7c59.1-59.1 91.6-137.8 91.6-221.4 0-83.3-32.3-161.6-90.9-220.7zM573.7 477H473v98c0 19.5-13 35.3-32.5 35.3S408 594.5 408 575v-98H305.3c-19.5 0-35.3-13-35.3-32.5s15.8-32.5 35.3-32.5H408v-105.4c0-19.5 13-35.3 32.5-35.3s32.5 15.8 32.5 35.3V412h100.7c19.5 0 35.3 13 35.3 32.5S593.2 477 573.7 477z"  horiz-adv-x="1024" />

    
    <glyph glyph-name="zichanliebiao" unicode="&#58960;" d="M704 224h192v-64H704zM640 96h256v-64H640zM768 352h128v-64H768zM507.86 113.32l-54.94 28.47V49h118.16v92.79l-54.94-28.47a9 9 0 0 0-8.28 0zM513 378.18l4.39 7.57h-8.79l4.4-7.57zM854.79 602.56a127 127 0 0 1-24.88 16.88L572.72 752.73a132.15 132.15 0 0 1-121.43 0L194.08 619.44C153.32 598.32 128 557.8 128 513.68v-260.36c0-44.11 25.32-84.63 66.08-105.76l257.2-133.28a132.09 132.09 0 0 1 120.22-0.61V141.51l-0.42-0.22v-92.79H452.92v92.79L250.66 246.1a8.16 8.16 0 0 0-4.51 7.21V456.88l-87.58 45.84 0.22 0.38 87.36-45.72v-0.5l206.77-108.22v0.5l33.18-17.37 26.9 46.39-4.4 7.57h-0.29l-25.8 44.42 0.22 0.12 25.87-44.54h8.79l-4.39-7.57 26.6-45.79 31.48 16.5 129.08 67.67H896v97.12c0 34.27-15.28 66.32-41.21 88.88zM563.48 472.62v0.5l-51.22-26.85-0.48-0.25L310 551.63l-59.34-30.73a8.16 8.16 0 0 1-4.51-7.21v0.5a8.16 8.16 0 0 0 4.51 7.21l58.84 30.49 0.48-0.25 197.88 102.54a9 9 0 0 0 8.28 0l99.61-51.62 98.36-51zM507.86 112.82a9 9 0 0 1 8.28 0l54.94 28.47V348.4l-31.48-16.5-26.6 45.78-26.9-46.39-33.18 17.37v-207.37z"  horiz-adv-x="1024" />

    
    <glyph glyph-name="shaixuan1" unicode="&#58944;" d="M581.54325334-109.14272395c-17.08790518 0-26.27912691 7.89668347-30.9394647 14.49882864-5.43706075 7.76722963-8.15559111 17.99408197-8.15559111 31.32782616 0.25890765 118.32079803 0.12945383 238.45394963 0.12945383 354.83294026V380.06328887999996v15.79336692c0 10.35630617 0.12945383 20.97152 0 31.45728-0.51781531 36.37652543 12.94538272 70.0345205 42.20194766 106.15213827 23.94895803 29.25656494 48.1568237 59.03094518 71.45851259 87.89914864 33.14017975 40.77795555 67.31599013 82.9799032 101.36234667 124.27567408 11.65084445 14.23992098 14.11046717 24.3373195 8.67340642 36.2470716-5.17815309 11.3919368-14.49882864 13.46319803-32.10454914 13.46319802-93.72457086-0.12945383-188.87313383-0.25890765-282.72715852-0.25890765s-188.87313383 0.12945383-282.72715852 0.25890765c-17.34681283 0-26.66748839-2.07126124-32.23400296-13.46319802-5.56651457-11.52139061-3.23634569-20.84206617 9.06176791-35.85871012 28.73874963-35.08198717 57.73640691-70.94069728 85.69843357-105.50486914 29.38601876-36.37652543 59.93712197-74.04758914 89.97040988-110.81247605 27.05584987-33.14017975 40.26014025-68.86943605 40.26014025-109.38848395v-113.27209877c0-64.85636741 0-132.0429037-0.12945383-198.06435555-0.12945383-28.22093431-15.79336691-47.89791605-38.18887902-47.89791605-3.62470717 0-7.24941431 0.51781531-10.87412148 1.55344593-28.99765728 8.02613728-28.99765728 35.08198717-28.99765728 45.17938567 0.12945383 37.54160987 0 75.60103506 0 112.4953758 0 60.32548347-0.12945383 122.72222815 0.38836148 184.08334223 0.25890765 31.71618765-9.0617679 57.60695309-29.12711112 81.68536494-32.8812721 39.35396347-65.63309037 79.74355753-97.21982419 118.96806716-23.81950419 29.38601876-48.28627753 59.80766815-72.75305087 89.32314074-33.14017975 40.26014025-39.22450963 82.07372642-17.99408197 124.53458173 19.67698173 39.22450963 52.94661531 58.25422222 101.62125431 58.25422222h1.94180742c37.02379457-0.51781531 77.6722963-0.77672297 127.90038123-0.77672297 25.63185778 0 51.65207703 0 76.76611951 0.12945384 25.11404247 0 51.13426173 0.12945383 76.7661195 0.12945381 27.57366518 0 55.66514569 0 82.85044939-0.12945381 27.1853037 0 55.27678419-0.12945383 82.85044939-0.12945384 45.95610864 0 83.49771852 0.12945383 118.1913442 0.51781531h1.42399208c47.89791605 0 81.81481876-20.32425086 100.84453136-60.45493728 9.83849086-20.84206617 13.20429037-41.55467852 10.35630619-61.49056789-2.84798419-19.41807408-11.65084445-38.44778667-26.40858075-56.44186866-21.8776968-26.79694222-43.88484741-54.11169975-65.37418272-80.64973431-36.11761778-44.66157037-73.40032-90.74713283-110.55356839-135.66761087-17.6057205-21.23042765-25.63185778-44.27320889-25.50240396-72.62359703 0.51781531-113.9193679 0.38836148-229.7805432 0.38836149-341.75810371V-63.963338280000016c0-12.55702124-2.71853037-22.65441975-8.02613729-30.29219556-4.66033778-6.60214518-13.59265185-14.62828247-30.16274171-14.88719011h-0.9061768zM871.39037236 384.72362666c-10.48576 0-21.23042765 0-31.58673384 0.12945383-19.93588939 0.12945383-39.87177876 0.12945383-59.80766815 0-9.45012939 0-18.90025876-0.12945383-28.35038815-0.12945383-13.72210569 0-24.98458864 0.12945383-35.59980246 0.25890765-16.31118222 0.25890765-30.0332879 5.69596839-38.44778667 15.40500544-6.60214518 7.63777581-9.70903703 17.6057205-8.41449877 27.96202666 1.55344592 12.94538272 6.86105283 22.91332741 15.53445926 29.38601877 7.76722963 5.82542222 18.25298963 8.67340642 31.06891852 8.67340642h0.77672296c25.76131161-0.25890765 53.3349768-0.25890765 86.86351803-0.25890766 21.8776968 0 44.14375506 0 65.76254419 0.12945383h34.30526421c36.37652543 0 45.04993185-21.35988148 45.82665481-39.22450963 0.51781531-12.42756741-2.58907653-22.26605827-9.32067555-29.51547259-7.76722963-8.28504494-19.93588939-12.42756741-37.02379458-12.68647506-9.32067555 0-19.67698173-0.12945383-31.58673381-0.12945383zM712.67998025 221.22344296000006c-26.02021925 0-42.59030914 15.14609778-43.23757827 39.48341728-0.25890765 11.9097521 3.3657995 22.13660445 10.61521383 29.64492642 7.63777581 7.89668347 18.64135111 12.16865975 31.71618766 12.29811358 41.16631703 0.25890765 72.88250469 0.25890765 102.78633875 0.25890766 34.04635653 0 64.72691358-0.12945383 93.98347853-0.38836149 12.94538272-0.12945383 23.56059653-4.14252247 30.68055703-11.78029827 5.04869925-5.30760691 10.74466765-15.01664395 10.09739852-31.06891851-1.03563061-24.20786569-16.31118222-38.05942518-41.68413235-38.18887902-13.98101333-0.12945383-28.99765728-0.12945383-48.67463901-0.12945382H752.16339753c-14.88719013 0-27.1853037 0-38.57724049-0.12945383h-0.90617679zM714.88069531 56.68762862999995c-14.62828247 0-26.53803457 4.2719763-34.56417184 12.29811358-7.1199605 7.24941431-11.00357531 17.21735902-10.87412149 28.99765728 0.12945383 16.31118222 7.24941431 25.76131161 13.20429038 30.68055704 8.02613728 6.73159902 19.15916642 9.96794469 32.88127209 9.57958322 10.48576-0.12945383 21.74824297-0.25890765 35.34089481-0.25890766 9.83849086 0 19.80643555 0 29.51547259 0.12945382 9.70903703 0 19.67698173 0.12945383 29.64492643 0.12945384h56.70077629c14.62828247 0 26.53803457 0 37.67106371 0.12945382h0.77672296c14.7577363 0 26.14967309-3.88361482 33.65799506-11.39193678 6.99050667-6.99050667 10.48576-16.82899753 10.48576-29.25656495 0-14.11046717-4.78979161-24.72568098-13.98101333-31.84564148-7.63777581-5.82542222-18.12353581-8.93231408-31.32782617-8.93231407h-94.63074766c-30.93946469-0.12945383-63.04401383-0.12945383-94.50129383-0.25890766z"  horiz-adv-x="1024" />

    
    <glyph glyph-name="shuju" unicode="&#59028;" d="M906.666667-42.666667h-789.333334A32 32 0 0 0 85.333333-10.666667v789.333334a32 32 0 0 0 64 0V21.333333h757.333334a32 32 0 0 0 0-64zM853.333333 64h-64a42.666667 42.666667 0 0 0-42.666666 42.666667V576a42.666667 42.666667 0 0 0 42.666666 42.666667h64a42.666667 42.666667 0 0 0 42.666667-42.666667v-469.333333a42.666667 42.666667 0 0 0-42.666667-42.666667z m-256 0h-64a42.666667 42.666667 0 0 0-42.666666 42.666667V490.666667a42.666667 42.666667 0 0 0 42.666666 42.666666h64a42.666667 42.666667 0 0 0 42.666667-42.666666v-384a42.666667 42.666667 0 0 0-42.666667-42.666667z m-256 0h-64a42.666667 42.666667 0 0 0-42.666666 42.666667V661.333333a42.666667 42.666667 0 0 0 42.666666 42.666667h64a42.666667 42.666667 0 0 0 42.666667-42.666667v-554.666666a42.666667 42.666667 0 0 0-42.666667-42.666667z"  horiz-adv-x="1024" />

    
    <glyph glyph-name="dakai" unicode="&#60383;" d="M275.84 736H124.192l1.824-580.096a32 32 0 0 0-64 0L60.16 736a64 64 0 0 0 64 64h177.92l97.28-96h498.272a32 32 0 1 0 0-64H373.152l-97.28 96zM127.52 160.384a32 32 0 0 0-63.04 10.944l54.624 314.144C127.904 536.064 174.784 576 225.76 576h668.864c55.36 0 93.92-46.72 84.384-101.472l-72.32-416C897.824 7.936 850.976-32 800-32H160a32 32 0 0 0 0 64h640c19.712 0 40.096 17.376 43.616 37.472l72.32 416c2.784 15.904-5.984 26.528-21.312 26.528H225.76c-19.68 0-40.096-17.376-43.584-37.472l-54.656-314.144z"  horiz-adv-x="1024" />

    
    <glyph glyph-name="liuchengguanli-" unicode="&#58885;" d="M661 390.9H363c-89.8 0-162.9 73.1-162.9 162.9V580c0 89.8 73.1 162.9 162.9 162.9h305.9c13.6-52.7 61.6-91.8 118.6-91.8 67.5 0 122.4 54.9 122.4 122.4S855 896 787.5 896c-56.9 0-104.9-39.1-118.6-91.8H363c-59.9 0-116.1-23.3-158.5-65.6-42.3-42.3-65.6-98.6-65.6-158.5v-26.2c0-59.9 23.3-116.1 65.6-158.5 42.3-42.3 98.6-65.6 158.5-65.6h298c89.8 0 162.9-73.1 162.9-162.9C823.9 77 750.8 4 661 4H358.6c-4.9 63.1-57.8 112.9-122.1 112.9-67.5 0-122.4-54.9-122.4-122.4S169-128 236.5-128c49 0 91.4 29 111 70.7H661c59.9 0 116.1 23.3 158.5 65.6 42.3 42.3 65.6 98.6 65.6 158.5 0 59.9-23.3 116.1-65.6 158.5-42.4 42.3-98.7 65.6-158.5 65.6zM787.5 834.8c33.8 0 61.2-27.5 61.2-61.2 0-33.8-27.5-61.2-61.2-61.2s-61.2 27.5-61.2 61.2 27.4 61.2 61.2 61.2z m-551-901.6c-33.8 0-61.2 27.5-61.2 61.2 0 33.8 27.5 61.2 61.2 61.2 33.8 0 61.2-27.5 61.2-61.2s-27.4-61.2-61.2-61.2z"  horiz-adv-x="1024" />

    
    <glyph glyph-name="Group-" unicode="&#59014;" d="M265.28 585.28a32 32 0 0 0 45.44 45.44l448-448a32 32 0 0 0-45.44-45.44zM713.28 630.72a32 32 0 0 0 45.44-45.44l-448-448a32 32 0 0 0-45.44 45.44z"  horiz-adv-x="1024" />

    
    <glyph glyph-name="daochu2" unicode="&#59297;" d="M976.3346963 380.69665184999997c-21.23851852 0-38.47205925-17.23354075-38.47205927-38.47205927v-304.62103703c0-28.27757037-23.05896297-51.33653333-51.33653333-51.33653333H137.83798518c-28.27757037 0-51.33653333 23.05896297-51.33653333 51.33653333V743.08645925c0 28.27757037 23.05896297 51.33653333 51.33653333 51.33653333h328.52954074c21.23851852 0 38.47205925 17.23354075 38.47205926 38.47205927S487.72740741 871.36711111 466.36752592 871.36711111H137.83798518C67.08337778 871.36711111 9.55733333 813.84106666 9.55733333 743.08645925V37.60355555000001c0-70.75460741 57.52604445-128.28065185 128.28065185-128.28065185h748.68811852c70.75460741 0 128.28065185 57.52604445 128.28065185 128.28065185V342.22459258000004c0 21.23851852-17.23354075 38.47205925-38.47205925 38.47205927zM197.79128889 190.64225184999998c119.54251852 113.11028148 240.1773037 287.99431111 453.53339259 276.70755556 15.04900741-0.84954075 26.82121482-12.62174815 26.82121482-27.79211853v-74.0314074c-0.12136297-23.30168889 26.94257778-36.28752592 45.02565925-21.6026074l276.5861926 223.67194073c13.71401482 11.04402963 13.71401482 32.03982222-0.12136297 43.08385185L724.38518518 858.25991111c-18.08308148 14.56355555-46.23928889 1.69908148-46.36065185-21.48124445v-75.00231111c0-14.0781037-9.58767408-24.27259259-23.42305185-27.42802963-367.12296297-83.74044445-459.96562963-514.09351111-456.81019259-543.70607407z"  horiz-adv-x="1024" />

    
    <glyph glyph-name="fujian" unicode="&#59502;" d="M618.83369141 613.30488281c14.05634766 11.24560547 33.73681641 11.24560547 49.19941406-1.40625 14.05634766-14.05634766 14.05634766-33.7359375 0-47.79316406L367.2125 264.69111327999997c-19.67871094-18.27421875-19.67871094-50.60478516 0-71.690625 18.27421875-19.67958984 50.60566406-19.67958984 71.690625 0l352.83164062 354.23613281c49.19941406 49.20029297 49.19941406 130.73027344 1e-8 179.9296875s-130.73027344 49.20029297-179.92968751 0l-42.17167968-42.16992187-11.24560547-11.24648438-324.71630859-324.71630859c-80.12548828-80.12548828-80.12548828-208.04414062-1e-8-288.16875 80.12460938-80.12548828 208.04326172-80.12548828 288.16875 0L847.96191406 384.17578125c5.62236328 2.81162109 8.43398437 7.02861328 11.24560547 11.24560547 14.05634766 14.05722656 33.73681641 14.05722656 47.79316406 0s14.05722656-33.73681641 0-47.79404297l-2.81074218-2.81162109c-2.8125-1.40537109-5.62324219-5.62236328-8.43486329-8.43398438L569.63339844 13.070800780000013c-105.42744141-105.42744141-278.32851563-105.42744141-383.75683594 0s-105.4265625 278.32851563 0 383.75683594l378.13447266 379.53808594c75.90761719 75.90849609 199.60927734 75.90849609 276.92314453 0 75.90761719-75.90761719 75.90761719-199.60839844 0-276.92226563L486.69628906 145.20644531000005c-46.38867188-46.38867188-122.29541016-46.38867188-167.27783203 0-46.38867188 46.38867188-46.38867188 122.29628906 0 167.27871094l299.41435547 300.81972656z m0 0"  horiz-adv-x="1024" />

    
    <glyph glyph-name="anjianliucheng" unicode="&#58963;" d="M701.44 384H546.133333v34.133333h155.306667a85.367467 85.367467 0 0 0 168.96-17.066666 85.333333 85.333333 0 0 0-168.96-17.066667zM733.866667 42.666667a85.333333 85.333333 0 1 0 0 170.666666 85.333333 85.333333 0 0 0 0-170.666666z m0 34.133333a51.2 51.2 0 1 1 0 102.4 51.2 51.2 0 0 1 0-102.4zM512 162.133333V571.733333a17.066667 17.066667 0 0 0 34.133333 0v-392.533333a34.133333 34.133333 0 0 1 34.133334-34.133333h85.333333v-34.133334h-102.4a51.2 51.2 0 0 0-51.2 51.2zM356.693333 332.8H512v-34.133333h-155.306667a85.367467 85.367467 0 0 0-168.96 17.066666 85.333333 85.333333 0 0 0 168.96 17.066667zM273.066667 264.533333a51.2 51.2 0 1 1 0 102.4 51.2 51.2 0 0 1 0-102.4zM529.066667 725.333333l85.333333-85.333333a85.333333 85.333333 0 1 0-85.333333 85.333333z m0-136.533333a51.2 51.2 0 1 1 0 102.4 51.2 51.2 0 0 1 0-102.4z"  horiz-adv-x="1024" />

    
    <glyph glyph-name="zhuye" unicode="&#58958;" d="M930.8 469.4L576.6 799.7c-17.9 20.4-43.8 32.1-71.2 32.2-27 0-52.8-11.6-70-30.9L94.2 469.7c-17-17.4-21.9-42.7-12.5-65.2 9.4-22.4 31.3-36.5 55.6-36.5H168v-336.8c0-52.3 41.8-94.7 94-94.7h146.5c19 0 35.9 15.3 35.9 34.3v224c0 9.5 6.3 18 15.8 18h103.4c9.5 0 16.8-8.5 16.8-18v-224c0-19 15.9-34.3 34.9-34.3h146.5c52.3 0 95 42.4 95 94.7V367.9h30.6c24.3 0 46.1 14 55.5 36.4 9.6 22.4 4.8 47.7-12.1 65.1z"  horiz-adv-x="1024" />

    
    <glyph glyph-name="heziguanligenduoshangpinkeji" unicode="&#58906;" d="M512.09999 895.90001L68.843277 661.5228979999999l443.256713-234.277121 443.256713 234.277121L512.09999 895.90001zM180.63236 661.5228979999999L512.09999 836.805781l331.46763-175.182893-331.46763-175.282882-331.46763 175.182892zM68.843277 609.128015l2.099795-513.249878 422.358754-223.878137-2.099795 513.249878L68.843277 609.128015zM123.037985 127.37506099999996l-1.599844 394.761449 317.668977-168.383556 1.599844-394.761449L123.037985 127.37506099999996zM530.898154-128l422.358755 223.878137 2.099794 513.249878L532.997949 385.249878l-2.099795-513.249878z m54.194708 481.752954l317.668978 168.383556-1.599844-394.761449-317.668978-168.383556 1.599844 394.761449z"  horiz-adv-x="1024" />

    
    <glyph glyph-name="ditulianxian" unicode="&#58957;" d="M796 500.3c-52.3 0-97.2-37.4-108.4-86H336.3c-11.2 48.6-56.1 86-108.4 86-67.3 0-115.9-48.6-115.9-115.9 0-67.3 48.6-115.9 115.9-115.9 52.3 0 97.2 37.4 108.4 86h351.3c11.2-48.6 56.1-86 108.4-86 67.3 0 115.9 48.6 115.9 115.9-3.8 63.6-52.4 112.2-115.9 115.9zM283.9 384.4c0-29.9-26.2-56.1-56.1-56.1-29.9 0-56.1 26.2-56.1 56.1 0 29.9 26.2 56.1 56.1 56.1 30 0 52.4-22.4 56.1-56.1z m571.9-3.7c0-29.9-26.2-56.1-56.1-56.1-29.9 0-56.1 26.2-56.1 56.1 0 29.9 26.2 56.1 56.1 56.1 29.9 0 52.3-22.4 56.1-56.1z m0 0"  horiz-adv-x="1024" />

    
    <glyph glyph-name="fenjianguocheng_o" unicode="&#60349;" d="M780.8 98.133333c-64-59.733333-153.6-98.133333-247.466667-98.133333s-183.466667 38.4-247.466666 98.133333c12.8 8.533333 25.6 17.066667 34.133333 25.6 55.466667-51.2 132.266667-81.066667 213.333333-81.066666s157.866667 29.866667 213.333334 81.066666c12.8-8.533333 21.333333-17.066667 34.133333-25.6z m106.666667 183.466667c-12.8 8.533333-25.6 12.8-42.666667 12.8 4.266667 21.333333 8.533333 42.666667 8.533333 64 0 140.8-93.866667 260.266667-221.866666 302.933333 4.266667 17.066667 8.533333 29.866667 8.533333 42.666667v4.266667c149.333333-46.933333 256-183.466667 256-345.6 0-25.6-4.266667-55.466667-8.533333-81.066667z m-708.266667 0c-4.266667 25.6-8.533333 55.466667-8.533333 81.066667 0 162.133333 106.666667 302.933333 256 345.6v-4.266667c0-12.8 4.266667-25.6 8.533333-38.4-128-42.666667-221.866667-162.133333-221.866667-302.933333 0-21.333333 4.266667-42.666667 8.533334-64-17.066667-4.266667-29.866667-8.533333-42.666667-17.066667zM533.333333 640c-34.133333 0-64 29.866667-64 64S499.2 768 533.333333 768s64-29.866667 64-64S567.466667 640 533.333333 640z m-298.666666-512c-34.133333 0-64 29.866667-64 64S200.533333 256 234.666667 256s64-29.866667 64-64S268.8 128 234.666667 128z m597.333333 0c-34.133333 0-64 29.866667-64 64s29.866667 64 64 64 64-29.866667 64-64-29.866667-64-64-64z"  horiz-adv-x="1024" />

    
    <glyph glyph-name="shanchu" unicode="&#59156;" d="M512-127.999097a510.462115 510.462115 0 1 0 199.29478 40.247601 508.793229 508.793229 0 0 0-199.29478-40.247601z m0 983.980111a470.45456 470.45456 0 1 1 183.714695-37.081289A469.014288 469.014288 0 0 1 512 855.992445zM712.460714 154.499967a19.946624 19.946624 0 0 0-14.448443 6.161164L306.246858 569.595501a20.003778 20.003778 0 0 0 28.885455 27.673798L726.909157 188.323498a20.003778 20.003778 0 0 0-14.437012-33.846392zM320.68387 154.499967a20.003778 20.003778 0 0 0-14.437012 33.823531l391.776844 408.93437a20.003778 20.003778 0 0 0 28.885455-27.673798L335.132313 160.661131a19.946624 19.946624 0 0 0-14.448443-6.161164z"  horiz-adv-x="1024" />

    
    <glyph glyph-name="shangchuan" unicode="&#58898;" d="M768 544a224 224 0 0 0 0-448h-32a32 32 0 0 0 0 64h32a160 160 0 0 1 0 320 147.2 147.2 0 0 1-27.84-2.56 32 32 0 0 0-38.08 27.52 192 192 0 0 1-380.16 0 32 32 0 0 0-38.08-27.52A147.2 147.2 0 0 1 256 480a160 160 0 0 1 0-320h32a32 32 0 0 0 0-64h-32a224 224 0 0 0 0 448h8.32a256 256 0 0 0 495.36 0zM544 0a32 32 0 0 0-64 0V288a32 32 0 0 0 64 0zM424 138.88a32 32 0 1 0-48 42.24l112 128a32 32 0 0 0 48 0l112-128a32 32 0 0 0-48-42.24l-88 100.48z"  horiz-adv-x="1024" />

    
    <glyph glyph-name="xia" unicode="&#58907;" d="M512 271.68l264.32 293.76a32 32 0 1 0 47.36-42.88l-288-320a32 32 0 0 0-47.36 0l-288 320a32 32 0 0 0 47.36 42.88z"  horiz-adv-x="1024" />

    
    <glyph glyph-name="xiazai1" unicode="&#58909;" d="M768 544a224 224 0 0 0 0-448h-32a32 32 0 0 0 0 64h32a160 160 0 0 1 0 320 147.2 147.2 0 0 1-27.84-2.56 32 32 0 0 0-38.08 27.52 192 192 0 0 1-380.16 0 32 32 0 0 0-38.08-27.52A147.2 147.2 0 0 1 256 480a160 160 0 0 1 0-320h32a32 32 0 0 0 0-64h-32a224 224 0 0 0 0 448h8.32a256 256 0 0 0 495.36 0zM480 288a32 32 0 0 0 64 0v-288a32 32 0 0 0-64 0zM600 149.12a32 32 0 0 0 48-42.24l-112-128a32 32 0 0 0-48 0l-112 128a32 32 0 1 0 48 42.24l88-100.48z"  horiz-adv-x="1024" />

    
    <glyph glyph-name="gaojisousuo" unicode="&#58992;" d="M881.4 645.1H141.5c-23.9 0-43.5 19.6-43.5 43.5s19.6 43.5 43.5 43.5h739.9c23.9 0 43.5-19.6 43.5-43.5s-19.6-43.5-43.5-43.5zM272.1 442H141.5c-23.9 0-43.5 19.6-43.5 43.5s19.6 43.5 43.5 43.5h130.6c23.9 0 43.5-19.6 43.5-43.5S296 442 272.1 442zM272.1 238.9H141.5c-23.9 0-43.5 19.6-43.5 43.5s19.6 43.5 43.5 43.5h130.6c23.9 0 43.5-19.6 43.5-43.5s-19.6-43.5-43.5-43.5zM853.8 48.5L715.3 187c-16.9 16.9-16.9 44.6 0 61.5s44.6 16.9 61.5 0L915.3 110c16.9-16.9 16.9-44.6 0-61.5s-44.6-16.9-61.5 0zM467.9 35.8H141.5c-23.9 0-43.5 19.6-43.5 43.5s19.6 43.5 43.5 43.5h326.4c23.9 0 43.5-19.6 43.5-43.5 0.1-23.9-19.5-43.5-43.5-43.5zM619.4 605.5C493.3 605.5 391 503.2 391 377s102.3-228.5 228.5-228.5S847.9 250.8 847.9 377 745.6 605.5 619.4 605.5z m0-388.4c-88.3 0-159.9 71.6-159.9 159.9 0 88.3 71.6 159.9 159.9 159.9s160-71.5 160-159.9c0-88.3-71.6-159.9-160-159.9z"  horiz-adv-x="1024" />

    
    <glyph glyph-name="icon-" unicode="&#59171;" d="M359.0144 798.72A71.68 71.68 0 0 0 430.08 727.04v-195.1744a71.68 71.68 0 0 0-71.68-71.68H163.84a71.68 71.68 0 0 0-71.68 71.68V727.04A71.68 71.68 0 0 0 163.84 798.72h195.1744m0 51.2H163.84a122.88 122.88 0 0 1-122.88-122.88v-195.1744a122.88 122.88 0 0 1 122.88-122.88h195.1744a122.88 122.88 0 0 1 122.88 122.88V727.04a122.88 122.88 0 0 1-122.88 122.88zM860.16 798.72a71.68 71.68 0 0 0 71.68-71.68v-195.1744a71.68 71.68 0 0 0-71.68-71.68h-195.1744a71.68 71.68 0 0 0-71.68 71.68V727.04a71.68 71.68 0 0 0 71.68 71.68H860.16m0 51.2h-195.1744a122.88 122.88 0 0 1-122.88-122.88v-195.1744a122.88 122.88 0 0 1 122.88-122.88H860.16a122.88 122.88 0 0 1 122.88 122.88V727.04a122.88 122.88 0 0 1-122.88 122.88zM359.0144 297.5744a71.68 71.68 0 0 0 71.68-71.68v-195.1744a71.68 71.68 0 0 0-71.68-71.68H163.84a71.68 71.68 0 0 0-71.68 71.68v195.1744a71.68 71.68 0 0 0 71.68 71.68h195.1744m0 51.2H163.84a122.88 122.88 0 0 1-122.88-122.88v-195.1744a122.88 122.88 0 0 1 122.88-122.88h195.1744a122.88 122.88 0 0 1 122.88 122.88v195.1744a122.88 122.88 0 0 1-122.88 122.88zM583.0656-71.2704A25.6 25.6 0 0 0 557.4656-46.08V302.08a25.6 25.6 0 0 0 51.2 0v-348.16a25.6 25.6 0 0 0-25.6-25.1904zM931.84-71.2704A25.6 25.6 0 0 0 906.24-46.08V302.08a25.6 25.6 0 0 0 51.2 0v-348.16a25.6 25.6 0 0 0-25.6-25.1904zM762.4704-71.2704A25.6 25.6 0 0 0 737.28-46.08V240.64a25.6 25.6 0 0 0 51.2 0v-286.72a25.6 25.6 0 0 0-26.0096-25.1904z"  horiz-adv-x="1024" />

    
    <glyph glyph-name="zuhe" unicode="&#58938;" d="M839.036 765.542H184.964c-30.102 0-54.506-24.404-54.506-54.506v-654.072c0-30.102 24.404-54.506 54.506-54.506h654.072c30.102 0 54.506 24.404 54.506 54.506V711.036c0 30.102-24.404 54.506-54.506 54.506z m0-681.328c0-15.05-12.196-27.249-27.249-27.249H213.066c-15.05 0-27.249 12.196-27.249 27.249V682.935c0 15.05 12.196 27.249 27.249 27.249h598.721c15.049 0 27.249-12.196 27.249-27.249v-598.721zM730.028 474.361H602.704V601.178c0 30.091-24.402 54.499-54.501 54.499H295.448c-30.098 0-54.501-24.401-54.501-54.499v-253.89c0-30.091 24.402-54.499 54.501-54.499h127.324v-126.817c0-30.091 24.402-54.499 54.501-54.499h252.755c30.098 0 54.501 24.401 54.501 54.499v253.89c0 30.091-24.402 54.499-54.501 54.499zM323.36 347.863c-15.05 0-27.251 12.207-27.251 27.26V572.817c0 15.055 12.201 27.26 27.251 27.26h196.928c15.051 0 27.251-12.207 27.251-27.26v-98.458h-70.267c-30.098 0-54.501-24.401-54.501-54.499v-71.998H323.36z m224.179 70.897v-43.638c0-15.055-12.202-27.26-27.251-27.26h-42.353V391.5c0 15.055 12.202 27.26 27.251 27.26h42.353z m181.826-224.953c0-15.055-12.201-27.26-27.251-27.26H505.186c-15.05 0-27.251 12.207-27.251 27.26v98.981h70.267c30.098 0 54.501 24.401 54.501 54.499v71.474h99.411c15.05 0 27.251-12.207 27.251-27.26v-197.693z"  horiz-adv-x="1024" />

    
    <glyph glyph-name="chaxun" unicode="&#60492;" d="M896 832H128c-35.296 0-64-28.704-64-64v-768c0-35.296 28.704-64 64-64h592a32 32 0 1 1 0 64H128V768h768v-592a32 32 0 1 1 64 0V768c0 35.296-28.704 64-64 64zM791.744 149.50400000000002A206.752 206.752 0 0 1 832 272c0 114.688-93.312 208-208 208S416 386.688 416 272s93.312-208 208-208a206.752 206.752 0 0 1 122.496 40.256l110.88-110.88a31.904 31.904 0 0 1 45.248 0 31.968 31.968 0 0 1 0 45.248l-110.88 110.88zM480 272c0 79.392 64.608 144 144 144s144-64.608 144-144-64.608-144-144-144-144 64.608-144 144zM800 632a32 32 0 0 1-32 32H256a32 32 0 0 1 0-64h512a32 32 0 0 1 32 32zM256 473.344a32 32 0 0 1 0-64h96a32 32 0 0 1 0 64H256z"  horiz-adv-x="1024" />

    
    <glyph glyph-name="shouqi1" unicode="&#59447;" d="M890.2 781H133.8c-20.9 0-37.8-16.9-37.8-37.8v-37.8c0-20.9 16.9-37.8 37.8-37.8h756.4c20.9 0 37.8 16.9 37.8 37.8v37.8c0 20.9-16.9 37.8-37.8 37.8zM890.2 440.7H398.5c-20.9 0-37.8-16.9-37.8-37.8v-37.8c0-20.9 16.9-37.8 37.8-37.8h491.6c20.9 0 37.8 16.9 37.8 37.8v37.8c0.1 20.9-16.8 37.8-37.7 37.8zM890.2 100.4H133.8c-20.9 0-37.8-16.9-37.8-37.8v-37.8c0-20.9 16.9-37.8 37.8-37.8h756.4c20.9 0 37.8 16.9 37.8 37.8v37.8c0 20.9-16.9 37.8-37.8 37.8zM266.2 295.3V472.7c0 22-29.2 33.1-46.2 17.5l-97.1-88.7c-10.6-9.7-10.6-25.3 0-35l97.1-88.7c17-15.5 46.2-4.5 46.2 17.5z"  horiz-adv-x="1024" />

    
    <glyph glyph-name="zhankai" unicode="&#59448;" d="M133.8 781h756.4c20.9 0 37.8-16.9 37.8-37.8v-37.8c0-20.9-16.9-37.8-37.8-37.8H133.8c-20.9 0-37.8 16.9-37.8 37.8v37.8c0 20.9 16.9 37.8 37.8 37.8zM133.8 440.7h491.6c20.9 0 37.8-16.9 37.8-37.8v-37.8c0-20.9-16.9-37.8-37.8-37.8H133.8c-20.9 0-37.8 16.9-37.8 37.8v37.8c0 20.9 16.9 37.8 37.8 37.8zM133.8 100.4h756.4c20.9 0 37.8-16.9 37.8-37.8v-37.8c0-20.9-16.9-37.8-37.8-37.8H133.8c-20.9 0-37.8 16.9-37.8 37.8v37.8c0 20.9 16.9 37.8 37.8 37.8zM757.8 295.3V472.7c0 22 29.2 33.1 46.2 17.5l97.1-88.7c10.6-9.7 10.6-25.3 0-35L804 277.9c-17-15.6-46.2-4.6-46.2 17.4z"  horiz-adv-x="1024" />

    
    <glyph glyph-name="fabu" unicode="&#58911;" d="M437.682-31.944c-17.673 0-32 14.327-32 32v235.2c0 17.673 14.327 32 32 32s32-14.327 32-32v-235.2c0-17.673-14.327-32-32-32zM444.929 210.034a31.878 31.878 0 0 0-20.752 7.654c-13.446 11.47-15.048 31.668-3.579 45.113l452.025 529.934c11.468 13.444 31.665 15.048 45.112 3.579 13.446-11.469 15.049-31.667 3.579-45.113L469.29 221.269c-6.329-7.42-15.318-11.235-24.361-11.235zM794.905 0.046a31.875 31.875 0 0 0-14.07 3.277L542.347 120.317c-15.866 7.784-22.419 26.956-14.636 42.823 7.783 15.866 26.957 22.419 42.823 14.636l238.488-116.994c15.866-7.784 22.419-26.956 14.636-42.823-5.558-11.331-16.929-17.913-28.753-17.913zM324.426 245.534a31.853 31.853 0 0 0-15.102 3.809L114.875 353.676c-15.573 8.355-21.424 27.754-13.068 43.327 8.356 15.574 27.755 21.424 43.327 13.068l194.449-104.333c15.573-8.355 21.424-27.754 13.068-43.327-5.772-10.759-16.816-16.877-28.225-16.877zM130.332 351.865c-11.683 0-22.938 6.419-28.576 17.555-7.982 15.768-1.67 35.021 14.098 43.003L882.516 800.519c15.771 7.982 35.021 1.669 43.004-14.098 7.981-15.768 1.67-35.021-14.099-43.003L144.759 355.322a31.883 31.883 0 0 0-14.427-3.457zM797.13-0.074c-1.42 0-2.855 0.095-4.302 0.289-17.517 2.354-29.807 18.461-27.453 35.978l99.084 737.288c2.354 17.516 18.458 29.806 35.977 27.453 17.517-2.354 29.807-18.461 27.453-35.977l-99.084-737.288c-2.159-16.07-15.897-27.743-31.675-27.743z"  horiz-adv-x="1024" />

    
    <glyph glyph-name="tianchongxing-" unicode="&#58934;" d="M403.7 859.4h-0.5v0.1H349v0.1H98.6c-35.3-2.5-63.3-31.9-63.3-67.9v-0.5h-0.1v-54.1h-0.1v-246c1.8-36 31.6-64.5 68-64.5h0.5v-0.1h307.5c29.5 3.3 53.3 25.4 59.1 54.1V805.4c-6.4 30.8-33.7 54-66.5 54zM919.6 859.4h-0.5v0.1H865v0.1H614.6c-35.3-2.5-63.3-31.9-63.3-67.9v-0.5h-0.1v-54.1h-0.1v-246c1.8-36 31.6-64.5 68-64.5h0.5v-0.1h307.5c29.5 3.3 53.3 25.4 59.1 54.1V805.4c-6.4 30.8-33.8 54-66.6 54zM403.7 345H349v0.1H98.6c-35.3-2.5-63.3-31.9-63.3-67.9v-0.5h-0.1v-54.1h-0.1v-246c1.8-36 31.6-64.5 68-64.5h0.5v-0.1h307.5c29.5 3.3 53.3 25.4 59.1 54.1V290.9c-6.4 30.9-33.7 54.1-66.5 54.1zM919.6 345H865v0.1H614.6c-35.3-2.5-63.3-31.9-63.3-67.9v-0.5h-0.1v-54.1h-0.1v-246c1.8-36 31.6-64.5 68-64.5h0.5v-0.1h307.5c29.5 3.3 53.3 25.4 59.1 54.1V290.9c-6.4 30.9-33.8 54.1-66.6 54.1z"  horiz-adv-x="1024" />

    
    <glyph glyph-name="jiaoseguanli" unicode="&#58949;" d="M711.016 106.667c-37.703 0-68.267 30.564-68.267 68.266 0 37.703 30.564 68.267 68.267 68.267 37.703 0 68.267-30.564 68.267-68.267 0-37.702-30.564-68.266-68.267-68.266z m0 51.2c9.426 0 17.067 7.64 17.067 17.066 0 9.426-7.641 17.067-17.067 17.067s-17.067-7.641-17.067-17.067c0-9.425 7.641-17.066 17.067-17.066z m65.626 130.735H645.39l-65.626-113.669 65.626-113.668h131.253l65.627 113.668-65.627 113.669zM502.87 349.93C334.628 305.348 237.74 222.746 206.327 101.358c-6.494-25.094 8.585-50.701 33.678-57.195a46.933 46.933 0 0 1 11.758-1.496h249.862c21.207 0 38.4-17.193 38.4-38.4 0-21.208-17.193-38.4-38.4-38.4H251.763a123.733 123.733 0 0 0-30.998 3.945c-66.156 17.12-105.909 84.63-88.79 150.786 31.335 121.089 114.154 210.328 245.417 267.32-53.698 37.84-88.776 100.331-88.776 171.015C288.616 674.398 382.218 768 497.683 768c115.464 0 209.066-93.602 209.066-209.067 0-113.73-90.811-206.25-203.879-209.003z m408.373-192.063L825.91 10.065a34.133 34.133 0 0 0-29.56-17.067H625.682a34.133 34.133 0 0 0-29.56 17.067l-85.334 147.802a34.133 34.133 0 0 0 0 34.133l85.333 147.802a34.133 34.133 0 0 0 29.56 17.066H796.35a34.133 34.133 0 0 0 29.56-17.066L911.244 192a34.133 34.133 0 0 0 0-34.133z m-413.56 268.8c73.048 0 132.266 59.217 132.266 132.266 0 73.05-59.218 132.267-132.266 132.267-73.05 0-132.267-59.218-132.267-132.267 0-73.049 59.218-132.266 132.267-132.266z"  horiz-adv-x="1024" />

    
    <glyph glyph-name="guanlian" unicode="&#59020;" d="M192.037 319.954h64.013v-63.919H128.025V767.969l576.112 0.041v-511.975H512.099v63.919h128.025V704.216h-448.34zM768.149 512.21v-64.419h64.013v-383.512H384.075V447.791h128.024V512.21H320.062v-511.849h576.112V512.21z"  horiz-adv-x="1024" />

    
    </font>
</defs>
</svg>
